Advertise here

31 (2016) Full 1080p Latino

1.614 vistas
1 estrella2 estrellas3 estrellas4 estrellas5 estrellas (Ninguna valoración todavía)
Cargando…

Información de 31 (2016) Full 1080p Latino

Datos de la película

  • Calidad: Full 1080p
  • Audio: Español Latino AC3 2.0 iTUNES - Ingles DTS 5.1 BURAY
  • Subtitulos: Español Latino PGS - Ingles PGS
  • Resolución: 1920x1080p
  • Formato: MKV
  • Codec: H.264
  • Encoder: Dpelis
  • Mediainfo: Clic para Mostrar Datos Ver
  • 31 (2016) Full 1080p Latino.mkv
    Format                      : Matroska
    Format version              : Version 4 / Version 2
    File size                   : 7.70 GiB
    Duration                    : 1 h 42 min
    Overall bit rate            : 10.7 Mb/s
    Movie name                  : DPeliculasHDMega.ORG
    Encoded date                : UTC 2017-08-08 20:21:19 / UTC 2017-08-06T12:40:56Z
    Writing application         : mkvmerge v10.0.0 ('To Drown In You') 64bit
    Writing library             : libebml v1.3.4 + libmatroska v1.4.5 / Lavf57.7.2

    Video
    ID                          : 1
    Format                      : AVC
    Format/Info                 : Advanced Video Codec
    Format profile              : High@L4.1
    Format settings, CABAC      : Yes
    Format settings, ReFrames   : 4 frames
    Codec ID                    : V_MPEG4/ISO/AVC
    Duration                    : 1 h 42 min
    Bit rate                    : 8 761 kb/s
    Width                       : 1 920 pixels
    Height                      : 1 080 pixels
    Display aspect ratio        : 16:9
    Frame rate mode             : Constant
    Frame rate                  : 23.976 (24000/1001) FPS
    Color space                 : YUV
    Chroma subsampling          : 4:2:0
    Bit depth                   : 8 bits
    Scan type                   : Progressive
    Bits/(Pixel*Frame)          : 0.176
    Stream size                 : 6.28 GiB (82%)
    Writing library             : x264 core 148 r2708 86b7198
    Encoding settings           : cabac=1 / ref=4 / deblock=1:0:0 / analyse=0x3:0x133 / me=esa / subme=10 / psy=1 / psy_rd=1.00:0.00 / mixed_ref=1 / me_range=24 / chroma_me=1 / trellis=2 / 8x8dct=1 / cqm=0 / deadzone=21,11 / fast_pskip=1 / chroma_qp_offset=-2 / threads=12 / lookahead_threads=2 / sliced_threads=0 / nr=0 / decimate=1 / interlaced=0 / bluray_compat=0 / constrained_intra=0 / bframes=8 / b_pyramid=2 / b_adapt=2 / b_bias=0 / direct=3 / weightb=1 / open_gop=0 / weightp=2 / keyint=240 / keyint_min=24 / scenecut=40 / intra_refresh=0 / rc_lookahead=60 / rc=crf / mbtree=1 / crf=20.0 / qcomp=0.60 / qpmin=0 / qpmax=69 / qpstep=4 / vbv_maxrate=62500 / vbv_bufsize=78125 / crf_max=0.0 / nal_hrd=none / filler=0 / ip_ratio=1.40 / aq=1:1.00
    Default                     : Yes
    Forced                      : No
    Color range                 : Limited
    Color primaries             : BT.709
    Transfer characteristics    : BT.709
    Matrix coefficients         : BT.709
    Statistics Tags Issue       : mkvmerge v10.0.0 ('To Drown In You') 64bit 2017-08-08 20:21:19 / mkvmerge v10.0.0 ('To Drown In You') 64bit 2017-08-08 20:21:19 / UTC 2017-08-06T12:40:56Z
    FromStats_BitRate           : 8962994
    FromStats_Duration          : 01:42:37.235000000
    FromStats_FrameCount        : 147626
    FromStats_StreamSize        : 6898408119

    Audio #1
    ID                          : 2
    Format                      : AC-3
    Format/Info                 : Audio Coding 3
    Format settings, Endianness : Big
    Codec ID                    : A_AC3
    Duration                    : 1 h 42 min
    Bit rate mode               : Constant
    Bit rate                    : 256 kb/s
    Channel(s)                  : 2 channels
    Channel positions           : Front: L R
    Sampling rate               : 48.0 kHz
    Frame rate                  : 31.250 FPS (1536 spf)
    Bit depth                   : 16 bits
    Compression mode            : Lossy
    Delay relative to video     : 4 s 317 ms
    Stream size                 : 188 MiB (2%)
    Title                       : Stereo
    Language                    : Spanish
    Service kind                : Complete Main
    Default                     : Yes
    Forced                      : No
    Statistics Tags Issue       : mkvmerge v10.0.0 ('To Drown In You') 64bit 2017-08-08 20:21:19 / mkvmerge v10.0.0 ('To Drown In You') 64bit 2017-08-08 20:21:19 / UTC 2017-08-06T12:40:56Z
    FromStats_BitRate           : 256000
    FromStats_Duration          : 01:42:34.144000000
    FromStats_FrameCount        : 192317
    FromStats_StreamSize        : 196932608

    Audio #2
    ID                          : 3
    Format                      : DTS
    Format/Info                 : Digital Theater Systems
    Mode                        : 16
    Format settings, Endianness : Big
    Codec ID                    : A_DTS
    Duration                    : 1 h 42 min
    Bit rate mode               : Constant
    Bit rate                    : 1 509 kb/s
    Channel(s)                  : 6 channels
    Channel positions           : Front: L C R, Side: L R, LFE
    Sampling rate               : 48.0 kHz
    Frame rate                  : 93.750 FPS (512 spf)
    Bit depth                   : 24 bits
    Compression mode            : Lossy
    Stream size                 : 1.08 GiB (14%)
    Title                       : Surround
    Language                    : English
    Default                     : No
    Forced                      : No
    Statistics Tags Issue       : mkvmerge v10.0.0 ('To Drown In You') 64bit 2017-08-08 20:21:19 / mkvmerge v10.0.0 ('To Drown In You') 64bit 2017-08-08 20:21:19 / UTC 2017-08-06T12:40:56Z
    FromStats_BitRate           : 1508999
    FromStats_Duration          : 01:42:37.270000000
    FromStats_FrameCount        : 577244
    FromStats_StreamSize        : 1161414928

    Text #1
    ID                          : 4
    Format                      : PGS
    Muxing mode                 : zlib
    Codec ID                    : S_HDMV/PGS
    Codec ID/Info               : Picture based subtitle format used on BDs/HD-DVDs
    Language                    : Spanish
    Default                     : No
    Forced                      : No
    Statistics Tags Issue       : mkvmerge v10.0.0 ('To Drown In You') 64bit 2017-08-08 20:21:19 / mkvmerge v10.0.0 ('To Drown In You') 64bit 2017-08-08 20:21:19 / UTC 2017-08-06T12:40:56Z
    FromStats_BitRate           : 4484
    FromStats_Duration          : 01:33:23.520000000
    FromStats_FrameCount        : 1728
    FromStats_StreamSize        : 3141343

    Text #2
    ID                          : 5
    Format                      : PGS
    Muxing mode                 : zlib
    Codec ID                    : S_HDMV/PGS
    Codec ID/Info               : Picture based subtitle format used on BDs/HD-DVDs
    Language                    : English
    Default                     : No
    Forced                      : No
    Statistics Tags Issue       : mkvmerge v10.0.0 ('To Drown In You') 64bit 2017-08-08 20:21:19 / mkvmerge v10.0.0 ('To Drown In You') 64bit 2017-08-08 20:21:19 / UTC 2017-08-06T12:40:56Z
    FromStats_BitRate           : 7185
    FromStats_Duration          : 01:37:53.159000000
    FromStats_FrameCount        : 2528
    FromStats_StreamSize        : 5275152

    Menu
    00:00:00.000                : :Chapter 1
    00:07:08.303                : :Chapter 2
    00:13:53.374                : :Chapter 3
    00:19:45.601                : :Chapter 4
    00:27:33.777                : :Chapter 5
    00:33:07.569                : :Chapter 6
    00:39:24.362                : :Chapter 7
    00:45:32.271                : :Chapter 8
    00:51:59.742                : :Chapter 9
    00:59:07.919                : :Chapter 10
    01:06:56.429                : :Chapter 11
    01:11:50.723                : :Chapter 12
    01:19:04.240                : :Chapter 13
    01:25:07.769                : :Chapter 14
    01:34:07.684                : :Chapter 15
    01:38:28.403                : :Chapter 16
    01:42:31.646                : :Chapter 17

  • Peso: 7.70 GB

Sinopsis

Descargar 31 1080p latino. Una película de terror y suspenso, disponible en hd latino, Cinco personas elegidas de manera totalmente aleatoria son secuestradas cinco días antes de la noche de Halloween. Estas personas, que no se conocen de nada, son recluidas en un lugar llamado Murder World. Allí, los cinco tendrán que jugar a un violento juego. Su nombre es 31, y en él no hay reglas, ni límites. El juego consiste simplemente en sobrevivir 12 horas el acecho de una horda de siniestros payasos, que intentarán matar a todo aquel que pille de por medio. Quien lo consiga… es libre.

Nueva película de Rob Zombie (‘Halloween, el origen’, ‘The Lords of Salem’) protagonizada por Sheri Moon Zombie.

Ficha técnica

Video trailer de la película

Enlaces de descarga

Descargar 31 (2016) Full 1080p Latino
Descargar

dpeliculas

Aportes de DPeliculasHDmega la pass es:dpeliculashdmega.org Aportes de CinemaniaHD la pass es:cinemaniahdd.com

Películas relacionadas

  • Dulce venganza (2016) 1080p Latino

    2016
    Dulce venganza (2016) 1080p Latino

    2.0 1 h 34 min 2016

    Un asesino de élite llamado Frank, tras ser traicionado por unos gángsters, es enviado a una cirujana...

    Director: Walter Hill

    Género: Acción

    Actores: Zak Santiago

  • Vikingos Temporada 5 (2017) WEB-DL Amazon 1080p Latino

    2017
    Vikingos Temporada 5 (2017) WEB-DL Amazon 1080p Latino

    0.0 0h 44m 2017

    Sigue las aventuras de Ragnar Lothbrok, el héroe más grande de su época. La serie narra las sagas...

    Director: Michael Hirst

    Género: Action & Adventure

    Actores: Moe Dunford

  • La LEGO Ninjago pelicula (2017) Full 1080p Latino

    2017
    La LEGO Ninjago pelicula (2017) Full 1080p Latino

    4.0 1h 40m 2017

    Una tierra lejana amenazada por la oscuridad. En este lugar llamado Ninjago, las fuerzas del bien y del...

    Director: Paul Fisher

    Género: Acción

    Actores: Zach Woods

  • La jugada maestra (2015) 1080p Latino

    2015
    La jugada maestra (2015) 1080p Latino

    0.0 1h 54m 2015

    "Pawn Sacrifice" (El sacrificio del peón) narra la historia de la preparación y del legendario enfrentamiento...

    Director: Edward Zwick

    Género: Drama

    Actores: Zach Fraser

Comentarios 0