Advertise here

Abracadabra (2017) Full 1080p Castellano

1.074 vistas
1 estrella2 estrellas3 estrellas4 estrellas5 estrellas (Ninguna valoración todavía)
Cargando…

Información de Abracadabra (2017) Full 1080p Castellano

Datos de la película

  • Calidad: Full 1080p
  • Audio: Español DTS 5.1 BLURAY
  • Subtitulos: No
  • Resolución: 1920X1080
  • Formato: MKV
  • Codec: H.264
  • Encoder: Dpelis
  • Mediainfo: Clic para Mostrar Datos Ver
  • Format                                   : Matroska
    Format version                           : Version 4 / Version 2
    File size                                : 6.26 GiB
    Duration                                 : 1 h 36 min
    Overall bit rate                         : 9 299 kb/s
    Movie name                               : dpeliculashdmega.org
    Encoded date                             : UTC 2017-12-01 02:22:06 / UTC 2017-11-30T20:13:17Z
    Writing application                      : mkvmerge v15.0.0 ('Duel with the Devil') 64-bit
    Writing library                          : libebml v1.3.5 + libmatroska v1.4.5 / Lavf57.7.2

    Video
    ID                                       : 1
    Format                                   : AVC
    Format/Info                              : Advanced Video Codec
    Format profile                           : High@L4.1
    Format settings                          : CABAC / 4 Ref Frames
    Format settings, CABAC                   : Yes
    Format settings, RefFrames               : 4 frames
    Codec ID                                 : V_MPEG4/ISO/AVC
    Duration                                 : 1 h 36 min
    Bit rate                                 : 7 605 kb/s
    Width                                    : 1 920 pixels
    Height                                   : 1 080 pixels
    Display aspect ratio                     : 16:9
    Frame rate mode                          : Constant
    Frame rate                               : 24.000 FPS
    Color space                              : YUV
    Chroma subsampling                       : 4:2:0
    Bit depth                                : 8 bits
    Scan type                                : Progressive
    Bits/(Pixel*Frame)                       : 0.153
    Stream size                              : 5.12 GiB (82%)
    Title                                    : Abracadabra (2017) Full 1080p Castellano
    Writing library                          : x264 core 148 r2708 86b7198
    Encoding settings                        : cabac=1 / ref=4 / deblock=1:0:0 / analyse=0x3:0x133 / me=esa / subme=10 / psy=1 / psy_rd=1.00:0.00 / mixed_ref=1 / me_range=24 / chroma_me=1 / trellis=2 / 8x8dct=1 / cqm=0 / deadzone=21,11 / fast_pskip=1 / chroma_qp_offset=-2 / threads=34 / lookahead_threads=5 / sliced_threads=0 / nr=0 / decimate=1 / interlaced=0 / bluray_compat=0 / constrained_intra=0 / bframes=8 / b_pyramid=2 / b_adapt=2 / b_bias=0 / direct=3 / weightb=1 / open_gop=0 / weightp=2 / keyint=240 / keyint_min=24 / scenecut=40 / intra_refresh=0 / rc_lookahead=60 / rc=crf / mbtree=1 / crf=20.0 / qcomp=0.60 / qpmin=0 / qpmax=69 / qpstep=4 / vbv_maxrate=62500 / vbv_bufsize=78125 / crf_max=0.0 / nal_hrd=none / filler=0 / ip_ratio=1.40 / aq=1:1.00
    Language                                 : Spanish
    Default                                  : Yes
    Forced                                   : No
    Color range                              : Limited
    Color primaries                          : BT.709
    Transfer characteristics                 : BT.709
    Matrix coefficients                      : BT.709
    Statistics Tags Issue                    : mkvmerge v15.0.0 ('Duel with the Devil') 64-bit 2017-12-01 02:22:06 / mkvmerge v15.0.0 ('Duel with the Devil') 64-bit 2017-12-01 02:22:06 / UTC 2017-11-30T20:13:17Z
    FromStats_BitRate                        : 7782088
    FromStats_Duration                       : 01:36:19.209000000
    FromStats_FrameCount                     : 138701
    FromStats_StreamSize                     : 5621789711

    Audio
    ID                                       : 2
    Format                                   : DTS
    Format/Info                              : Digital Theater Systems
    Mode                                     : 16
    Format settings, Endianness              : Big
    Codec ID                                 : A_DTS
    Duration                                 : 1 h 36 min
    Bit rate mode                            : Constant
    Bit rate                                 : 1 509 kb/s
    Channel(s)                               : 6 channels
    Channel positions                        : Front: L C R, Side: L R, LFE
    Sampling rate                            : 48.0 kHz
    Frame rate                               : 93.750 FPS (512 SPF)
    Bit depth                                : 24 bits
    Compression mode                         : Lossy
    Stream size                              : 1.02 GiB (16%)
    Title                                    : Castellano-DTS
    Language                                 : Spanish
    Default                                  : Yes
    Forced                                   : No
    Statistics Tags Issue                    : mkvmerge v15.0.0 ('Duel with the Devil') 64-bit 2017-12-01 02:22:06 / mkvmerge v15.0.0 ('Duel with the Devil') 64-bit 2017-12-01 02:22:06 / UTC 2017-11-30T20:13:17Z
    FromStats_BitRate                        : 1508999
    FromStats_Duration                       : 01:36:19.243000000
    FromStats_FrameCount                     : 541804
    FromStats_StreamSize                     : 1090109648

    Text
    ID                                       : 3
    Format                                   : PGS
    Muxing mode                              : zlib
    Codec ID                                 : S_HDMV/PGS
    Codec ID/Info                            : Picture based subtitle format used on BDs/HD-DVDs
    Language                                 : English
    Default                                  : No
    Forced                                   : No
    Statistics Tags Issue                    : mkvmerge v15.0.0 ('Duel with the Devil') 64-bit 2017-12-01 02:22:06 / mkvmerge v15.0.0 ('Duel with the Devil') 64-bit 2017-12-01 02:22:06 / UTC 2017-11-30T20:13:17Z
    FromStats_BitRate                        : 21439
    FromStats_Duration                       : 01:28:28.417000000
    FromStats_FrameCount                     : 1500
    FromStats_StreamSize                     : 14226196

    Menu
    00:00:00.000                             : :Chapter 1
    00:07:51.167                             : :Chapter 2
    00:16:01.833                             : :Chapter 3
    00:24:08.667                             : :Chapter 4
    00:32:25.708                             : :Chapter 5
    00:39:49.583                             : :Chapter 6
    00:46:31.583                             : :Chapter 7
    00:54:42.417                             : :Chapter 8
    01:00:02.875                             : :Chapter 9
    01:12:26.500                             : :Chapter 10
    01:21:02.792                             : :Chapter 11
    01:29:26.167                             : :Chapter 12

  • Peso: 6.26 GiB

Sinopsis

Carmen (Maribel Verdú), un ama de casa del barrio madrileño de Carabanchel, descubre un día que su marido, Carlos (De la Torre), parece estar poseído por un espíritu maligno. Ahí empieza una exhaustiva investigación, entre terrorífica y disparatada, para intentar recuperarlo.

Ficha técnica

Video trailer de la película

Enlaces de descarga

Descargar Abracadabra (2017) Full 1080p Castellano
Descargar

dpeliculas

Aportes de DPeliculasHDmega la pass es:dpeliculashdmega.org Aportes de CinemaniaHD la pass es:cinemaniahdd.com
Guardado en : Comedia , FULL 1080p Pesadas

Películas relacionadas

  • Barry Seal: solo en América (2017) 1080p Latino

    2017
    Barry Seal: solo en América (2017) 1080p Latino

    0.0 1 h 54 min 2017

    Basada en la vida real de Barry Seal, un expiloto que se convirtió en un importante narcotraficante...

    Director: Nick DiRosa

    Género: Acción

    Actores: William Mark McCullough

  • Línea mortal: al límite (2017) Full 1080p Latino

    2017
    Línea mortal: al límite (2017) Full 1080p Latino

    0.0 1 h 49 min 2017

    Remake del clasico de los 90 Línea mortal (Flatliners). Un grupo de jóvenes estudiantes de medicina...

    Director: Niels Arden Oplev

    Género: Ciencia ficción

    Actores: Wendy Raquel Robinson

  • La montaña entre nosotros (2017) Full 1080p Latino

    2017
    La montaña entre nosotros (2017) Full 1080p Latino

    5.0 1 h 51 min 2017

    Abandonados a su suerte después de un trágico accidente aéreo, Ben Bass (Idris Elba) y Alex Martin...

    Director: Tim Macarthur

    Género: Aventura

    Actores: Waleed Zuaiter

  • Me gusta, pero me asusta (2017) WEBDL Latino

    2017
    Me gusta, pero me asusta (2017) WEBDL Latino

    0.0 1h 40m 2017

    Dicen que todos los mexicanos somos iguales, pero eso… está por verse. Brayan Rodríguez (Alejandro...

    Director: Beto Gómez

    Género: Comedia

    Actores: Tere Salinas

Comentarios 0