Advertise here

Amistad (1997) Full 1080p Latino

431 vistas
1 estrella2 estrellas3 estrellas4 estrellas5 estrellas (1 votos, promedio: 1,00 de 5)
Cargando…

Información de Amistad (1997) Full 1080p Latino

Datos de la película

  • Calidad: Full 1080p
  • Audio: Español Latino AC3 2.0 BLURAY - Ingles DTS 5.1 BLURAY
  • Subtitulos: Español Latino PGS - Ingles PGS
  • Resolución: 1920X1080p
  • Formato: MKV
  • Codec: H.264
  • Encoder: Dracarys
  • Mediainfo: Clic para Mostrar Datos Ver
  • Format                                   : Matroska
    Format version                           : Version 4 / Version 2
    File size                                : 18.7 GiB
    Duration                                 : 2 h 34 min
    Overall bit rate                         : 17.3 Mb/s
    Movie name                               : CinemaniaHDD.com
    Encoded date                             : UTC 2017-12-06 05:14:15 / UTC 2017-12-05T05:26:50Z
    Writing application                      : mkvmerge v15.0.0 ('Duel with the Devil') 64-bit
    Writing library                          : libebml v1.3.5 + libmatroska v1.4.5 / Lavf57.7.2

    Video
    ID                                       : 1
    Format                                   : AVC
    Format/Info                              : Advanced Video Codec
    Format profile                           : High@L4.1
    Format settings                          : CABAC / 4 Ref Frames
    Format settings, CABAC                   : Yes
    Format settings, RefFrames               : 4 frames
    Codec ID                                 : V_MPEG4/ISO/AVC
    Duration                                 : 2 h 34 min
    Bit rate                                 : 15.3 Mb/s
    Width                                    : 1 920 pixels
    Height                                   : 1 080 pixels
    Display aspect ratio                     : 16:9
    Frame rate mode                          : Constant
    Frame rate                               : 23.976 (24000/1001) FPS
    Color space                              : YUV
    Chroma subsampling                       : 4:2:0
    Bit depth                                : 8 bits
    Scan type                                : Progressive
    Bits/(Pixel*Frame)                       : 0.307
    Stream size                              : 16.5 GiB (88%)
    Title                                    : Amistad (1997) Full 1080p Latino
    Writing library                          : x264 core 148 r2708 86b7198
    Encoding settings                        : cabac=1 / ref=4 / deblock=1:0:0 / analyse=0x3:0x133 / me=esa / subme=10 / psy=1 / psy_rd=1.00:0.00 / mixed_ref=1 / me_range=24 / chroma_me=1 / trellis=2 / 8x8dct=1 / cqm=0 / deadzone=21,11 / fast_pskip=1 / chroma_qp_offset=-2 / threads=34 / lookahead_threads=5 / sliced_threads=0 / nr=0 / decimate=1 / interlaced=0 / bluray_compat=0 / constrained_intra=0 / bframes=8 / b_pyramid=2 / b_adapt=2 / b_bias=0 / direct=3 / weightb=1 / open_gop=0 / weightp=2 / keyint=240 / keyint_min=24 / scenecut=40 / intra_refresh=0 / rc_lookahead=60 / rc=crf / mbtree=1 / crf=20.0 / qcomp=0.60 / qpmin=0 / qpmax=69 / qpstep=4 / vbv_maxrate=62500 / vbv_bufsize=78125 / crf_max=0.0 / nal_hrd=none / filler=0 / ip_ratio=1.40 / aq=1:1.00
    Language                                 : English
    Default                                  : Yes
    Forced                                   : No
    Color range                              : Limited
    Color primaries                          : BT.709
    Transfer characteristics                 : BT.709
    Matrix coefficients                      : BT.709
    Statistics Tags Issue                    : mkvmerge v15.0.0 ('Duel with the Devil') 64-bit 2017-12-06 05:14:15 / mkvmerge v15.0.0 ('Duel with the Devil') 64-bit 2017-12-06 05:14:15 / UTC 2017-12-05T05:26:50Z
    FromStats_BitRate                        : 15579833
    FromStats_Duration                       : 02:34:43.316000000
    FromStats_FrameCount                     : 222577
    FromStats_StreamSize                     : 18079064181

    Audio #1
    ID                                       : 2
    Format                                   : AC-3
    Format/Info                              : Audio Coding 3
    Mode                                     : Dolby Digital
    Format settings, Endianness              : Big
    Codec ID                                 : A_AC3
    Duration                                 : 2 h 34 min
    Bit rate mode                            : Constant
    Bit rate                                 : 224 kb/s
    Channel(s)                               : 2 channels
    Channel positions                        : Front: L R
    Sampling rate                            : 48.0 kHz
    Frame rate                               : 31.250 FPS (1536 SPF)
    Bit depth                                : 16 bits
    Compression mode                         : Lossy
    Stream size                              : 248 MiB (1%)
    Title                                    : AC3-BluRay
    Language                                 : Spanish
    Service kind                             : Complete Main
    Default                                  : Yes
    Forced                                   : No
    Statistics Tags Issue                    : mkvmerge v15.0.0 ('Duel with the Devil') 64-bit 2017-12-06 05:14:15 / mkvmerge v15.0.0 ('Duel with the Devil') 64-bit 2017-12-06 05:14:15 / UTC 2017-12-05T05:26:50Z
    FromStats_BitRate                        : 224000
    FromStats_Duration                       : 02:34:43.328000000
    FromStats_FrameCount                     : 290104
    FromStats_StreamSize                     : 259933184

    Audio #2
    ID                                       : 3
    Format                                   : DTS
    Format/Info                              : Digital Theater Systems
    Mode                                     : 16
    Format settings, Endianness              : Big
    Codec ID                                 : A_DTS
    Duration                                 : 2 h 34 min
    Bit rate mode                            : Constant
    Bit rate                                 : 1 509 kb/s
    Channel(s)                               : 6 channels
    Channel positions                        : Front: L C R, Side: L R, LFE
    Sampling rate                            : 48.0 kHz
    Frame rate                               : 93.750 FPS (512 SPF)
    Bit depth                                : 24 bits
    Compression mode                         : Lossy
    Stream size                              : 1.63 GiB (9%)
    Title                                    : DTS-BluRay
    Language                                 : English
    Default                                  : No
    Forced                                   : No
    Statistics Tags Issue                    : mkvmerge v15.0.0 ('Duel with the Devil') 64-bit 2017-12-06 05:14:15 / mkvmerge v15.0.0 ('Duel with the Devil') 64-bit 2017-12-06 05:14:15 / UTC 2017-12-05T05:26:50Z
    FromStats_BitRate                        : 1508999
    FromStats_Duration                       : 02:34:43.307000000
    FromStats_FrameCount                     : 870310
    FromStats_StreamSize                     : 1751063720

    Text #1
    ID                                       : 4
    Format                                   : UTF-8
    Codec ID                                 : S_TEXT/UTF8
    Codec ID/Info                            : UTF-8 Plain Text
    Title                                    : SRT-Forzados
    Language                                 : Spanish
    Default                                  : Yes
    Forced                                   : Yes
    Statistics Tags Issue                    : mkvmerge v15.0.0 ('Duel with the Devil') 64-bit 2017-12-06 05:14:15 / mkvmerge v15.0.0 ('Duel with the Devil') 64-bit 2017-12-06 05:14:15 / UTC 2017-12-05T05:26:50Z
    FromStats_BitRate                        : 3
    FromStats_Duration                       : 02:21:59.970000000
    FromStats_FrameCount                     : 109
    FromStats_StreamSize                     : 3730

    Text #2
    ID                                       : 5
    Format                                   : UTF-8
    Codec ID                                 : S_TEXT/UTF8
    Codec ID/Info                            : UTF-8 Plain Text
    Title                                    : SRT-Completos
    Language                                 : Spanish
    Default                                  : No
    Forced                                   : No
    Statistics Tags Issue                    : mkvmerge v15.0.0 ('Duel with the Devil') 64-bit 2017-12-06 05:14:15 / mkvmerge v15.0.0 ('Duel with the Devil') 64-bit 2017-12-06 05:14:15 / UTC 2017-12-05T05:26:50Z
    FromStats_BitRate                        : 42
    FromStats_Duration                       : 02:21:59.970000000
    FromStats_FrameCount                     : 1267
    FromStats_StreamSize                     : 45189

    Text #3
    ID                                       : 6
    Format                                   : PGS
    Muxing mode                              : zlib
    Codec ID                                 : S_HDMV/PGS
    Codec ID/Info                            : Picture based subtitle format used on BDs/HD-DVDs
    Title                                    : PGS
    Language                                 : English
    Default                                  : No
    Forced                                   : No
    Statistics Tags Issue                    : mkvmerge v15.0.0 ('Duel with the Devil') 64-bit 2017-12-06 05:14:15 / mkvmerge v15.0.0 ('Duel with the Devil') 64-bit 2017-12-06 05:14:15 / UTC 2017-12-05T05:26:50Z
    FromStats_BitRate                        : 30339
    FromStats_Duration                       : 02:21:59.928000000
    FromStats_FrameCount                     : 2735
    FromStats_StreamSize                     : 32311426

    Text #4
    ID                                       : 7
    Format                                   : PGS
    Muxing mode                              : zlib
    Codec ID                                 : S_HDMV/PGS
    Codec ID/Info                            : Picture based subtitle format used on BDs/HD-DVDs
    Title                                    : PGS
    Language                                 : Spanish
    Default                                  : No
    Forced                                   : No
    Statistics Tags Issue                    : mkvmerge v15.0.0 ('Duel with the Devil') 64-bit 2017-12-06 05:14:15 / mkvmerge v15.0.0 ('Duel with the Devil') 64-bit 2017-12-06 05:14:15 / UTC 2017-12-05T05:26:50Z
    FromStats_BitRate                        : 25473
    FromStats_Duration                       : 02:21:59.928000000
    FromStats_FrameCount                     : 2530
    FromStats_StreamSize                     : 27129396

    Menu
    00:00:00.000                             : :Chapter 1
    00:05:21.738                             : :Chapter 2
    00:13:04.784                             : :Chapter 3
    00:22:51.453                             : :Chapter 4
    00:28:03.974                             : :Chapter 5
    00:36:28.645                             : :Chapter 6
    00:46:25.449                             : :Chapter 7
    00:50:00.331                             : :Chapter 8
    01:00:14.736                             : :Chapter 9
    01:08:57.884                             : :Chapter 10
    01:16:28.084                             : :Chapter 11
    01:26:34.106                             : :Chapter 12
    01:32:00.890                             : :Chapter 13
    01:41:00.680                             : :Chapter 14
    01:45:48.884                             : :Chapter 15
    01:49:31.690                             : :Chapter 16
    01:54:32.991                             : :Chapter 17
    01:59:41.549                             : :Chapter 18
    02:01:57.185                             : :Chapter 19
    02:08:11.225                             : :Chapter 20
    02:13:57.613                             : :Chapter 21
    02:18:53.325                             : :Chapter 22
    02:23:55.377                             : :Chapter 23
    02:27:47.650                             : :Chapter 24

  • Peso: 18.7 GiB

Sinopsis

Una noche del verano de 1839, cincuenta y tres esclavos negros que viajaban a bordo del navío “La Amistad” se amotinaron y tomaron el control del barco frente a las costas de Cuba. Fracasado su intento de regresar a África, fueron detenidos por tropas americanas y se encontraron en un país extraño y a merced de un sistema judicial que les era ajeno.

Ficha técnica

Video trailer de la película

Enlaces de descarga

Descargar Amistad (1997) Full 1080p Latino
Descargar

dpeliculas

Aportes de DPeliculasHDmega la pass es:dpeliculashdmega.org Aportes de CinemaniaHD la pass es:cinemaniahdd.com

Películas relacionadas

  • Línea mortal: Al límite (2017) 1080p Latino

    2017
    Línea mortal: Al límite (2017) 1080p Latino

    0.0 1 h 49 min 2017

    Un grupo de jóvenes estudiantes de medicina llevan a cabo un experimento que implica una muerte provocada...

    Director: Niels Arden Oplev

    Género: Ciencia ficción

    Actores: Wendy Raquel Robinson

  • Un reino unido (2016) 1080p Latino

    2016
    Un reino unido (2016) 1080p Latino

    0.0 1 h 50 min 2016

    Biopic sobre el Príncipe Seretse Khama, el rey de Botsuana, que al contraer matrimonio en 1948 con Ruth...

    Director: Amma Asante

    Género: Drama

    Actores: Zackary Momoh

  • The Walking Dead (2017) Temporada 8 WEB-DL 1080p Latino

    2017
    The Walking Dead (2017) Temporada 8 WEB-DL 1080p Latino

    5.0 0h 42m 2017

    Rick, Maggie y Ezekiel reúnen a sus comunidades para derrotar a Negan y los salvadores. Gregory intenta...

    Director: Frank Darabont

    Género: Action & Adventure

    Actores: Norman Reedus

  • Vikingos Temporada 5 (2017) WEB-DL Amazon 1080p Latino

    2017
    Vikingos Temporada 5 (2017) WEB-DL Amazon 1080p Latino

    0.0 0h 44m 2017

    Sigue las aventuras de Ragnar Lothbrok, el héroe más grande de su época. La serie narra las sagas...

    Director: Michael Hirst

    Género: Action & Adventure

    Actores: Moe Dunford

Comentarios 2
  • destroyer - 06 diciembre, 2017

    por mega para cuando por favor gracias por la peliculas

    • Dpelis2

      Autor
      - 06 diciembre, 2017

      Links Agregadoa