Advertise here

Atomica (2017) 1080p Latino

9.098 vistas
1 estrella2 estrellas3 estrellas4 estrellas5 estrellas (1 votos, promedio: 1,00 de 5)
Cargando…

Información de Atomica (2017) 1080p Latino

Datos de la película

  • Calidad: 1080p
  • Audio: Español Latino AC3 2.0 iTUNES - Ingles AC3 5.1 BLURAY
  • Subtitulos: Español Latino SRT
  • Resolución: 1920x1080p
  • Formato: MKV
  • Codec: H.264
  • Encoder: Dpelis
  • Mediainfo: Clic para Mostrar Datos Ver
  • Atomica (2017) 1080p Latino.mkv
    Format                      : Matroska
    Format version              : Version 4 / Version 2
    File size                   : 2.34 GiB
    Duration                    : 1 h 22 min
    Overall bit rate            : 4 076 kb/s
    Movie name                  : DPeliculasHDMega.ORG
    Encoded date                : UTC 2017-09-23 14:17:29 / UTC 2017-09-23T13:06:45Z
    Writing application         : mkvmerge v10.0.0 ('To Drown In You') 64bit
    Writing library             : libebml v1.3.4 + libmatroska v1.4.5 / Lavf57.7.2

    Video
    ID                          : 1
    Format                      : AVC
    Format/Info                 : Advanced Video Codec
    Format profile              : High@L4.1
    Format settings, CABAC      : Yes
    Format settings, RefFrames  : 4 frames
    Codec ID                    : V_MPEG4/ISO/AVC
    Duration                    : 1 h 22 min
    Bit rate                    : 3 500 kb/s
    Width                       : 1 920 pixels
    Height                      : 1 080 pixels
    Display aspect ratio        : 16:9
    Frame rate mode             : Constant
    Frame rate                  : 23.976 (24000/1001) FPS
    Color space                 : YUV
    Chroma subsampling          : 4:2:0
    Bit depth                   : 8 bits
    Scan type                   : Progressive
    Bits/(Pixel*Frame)          : 0.070
    Stream size                 : 1.97 GiB (84%)
    Writing library             : x264 core 148 r2708 86b7198
    Encoding settings           : cabac=1 / ref=3 / deblock=1:0:0 / analyse=0x3:0x113 / me=hex / subme=7 / psy=1 / psy_rd=1.00:0.00 / mixed_ref=1 / me_range=16 / chroma_me=1 / trellis=1 / 8x8dct=1 / cqm=0 / deadzone=21,11 / fast_pskip=1 / chroma_qp_offset=-2 / threads=34 / lookahead_threads=5 / sliced_threads=0 / nr=0 / decimate=1 / interlaced=0 / bluray_compat=0 / constrained_intra=0 / bframes=3 / b_pyramid=2 / b_adapt=1 / b_bias=0 / direct=1 / weightb=1 / open_gop=0 / weightp=2 / keyint=240 / keyint_min=24 / scenecut=40 / intra_refresh=0 / rc_lookahead=40 / rc=2pass / mbtree=1 / bitrate=3500 / ratetol=1.0 / qcomp=0.60 / qpmin=0 / qpmax=69 / qpstep=4 / cplxblur=20.0 / qblur=0.5 / vbv_maxrate=62500 / vbv_bufsize=78125 / nal_hrd=none / filler=0 / ip_ratio=1.40 / aq=1:1.00
    Default                     : Yes
    Forced                      : No
    Color range                 : Limited
    Color primaries             : BT.709
    Transfer characteristics    : BT.709
    Matrix coefficients         : BT.709
    Statistics Tags Issue       : mkvmerge v10.0.0 ('To Drown In You') 64bit 2017-09-23 14:17:29 / mkvmerge v10.0.0 ('To Drown In You') 64bit 2017-09-23 14:17:29 / UTC 2017-09-23T13:06:45Z
    FromStats_BitRate           : 3498119
    FromStats_Duration          : 01:22:18.601000000
    FromStats_FrameCount        : 118408
    FromStats_StreamSize        : 2159476866

    Audio #1
    ID                          : 2
    Format                      : AC-3
    Format/Info                 : Audio Coding 3
    Format settings, Endianness : Big
    Codec ID                    : A_AC3
    Duration                    : 1 h 22 min
    Bit rate mode               : Constant
    Bit rate                    : 192 kb/s
    Channel(s)                  : 2 channels
    Channel positions           : Front: L R
    Sampling rate               : 48.0 kHz
    Frame rate                  : 31.250 FPS (1536 SPF)
    Bit depth                   : 16 bits
    Compression mode            : Lossy
    Delay relative to video     : -5 ms
    Stream size                 : 113 MiB (5%)
    Language                    : Spanish
    Service kind                : Complete Main
    Default                     : Yes
    Forced                      : No
    Statistics Tags Issue       : mkvmerge v10.0.0 ('To Drown In You') 64bit 2017-09-23 14:17:29 / mkvmerge v10.0.0 ('To Drown In You') 64bit 2017-09-23 14:17:29 / UTC 2017-09-23T13:06:45Z
    FromStats_BitRate           : 192000
    FromStats_Duration          : 01:22:19.456000000
    FromStats_FrameCount        : 154358
    FromStats_StreamSize        : 118546944

    Audio #2
    ID                          : 3
    Format                      : AC-3
    Format/Info                 : Audio Coding 3
    Format settings, Endianness : Big
    Codec ID                    : A_AC3
    Duration                    : 1 h 22 min
    Bit rate mode               : Constant
    Bit rate                    : 384 kb/s
    Channel(s)                  : 6 channels
    Channel positions           : Front: L C R, Side: L R, LFE
    Sampling rate               : 48.0 kHz
    Frame rate                  : 31.250 FPS (1536 SPF)
    Bit depth                   : 16 bits
    Compression mode            : Lossy
    Delay relative to video     : -5 ms
    Stream size                 : 226 MiB (9%)
    Title                       : Surround
    Language                    : English
    Service kind                : Complete Main
    Default                     : No
    Forced                      : No
    Statistics Tags Issue       : mkvmerge v10.0.0 ('To Drown In You') 64bit 2017-09-23 14:17:29 / mkvmerge v10.0.0 ('To Drown In You') 64bit 2017-09-23 14:17:29 / UTC 2017-09-23T13:06:45Z
    FromStats_BitRate           : 384000
    FromStats_Duration          : 01:22:18.656000000
    FromStats_FrameCount        : 154333
    FromStats_StreamSize        : 237055488

    Text
    ID                          : 4
    Format                      : UTF-8
    Codec ID                    : S_TEXT/UTF8
    Codec ID/Info               : UTF-8 Plain Text
    Language                    : Spanish
    Default                     : No
    Forced                      : No
    Statistics Tags Issue       : mkvmerge v10.0.0 ('To Drown In You') 64bit 2017-09-23 14:17:29 / mkvmerge v10.0.0 ('To Drown In You') 64bit 2017-09-23 14:17:29 / UTC 2017-09-23T13:06:45Z
    FromStats_BitRate           : 54
    FromStats_Duration          : 01:19:15.810000000
    FromStats_FrameCount        : 933
    FromStats_StreamSize        : 32348

    Menu
    00:00:00.000                : :00:00:00.000
    00:09:22.562                : :00:09:17.140
    00:19:08.105                : :00:18:59.597
    00:30:39.296                : :00:30:32.456
    00:41:32.073                : :00:41:22.063
    00:49:04.525                : :00:48:57.810
    00:59:28.482                : :00:59:18.513
    01:10:06.119                : :01:09:56.275
    01:18:44.887                : :01:18:44.762

  • Peso: 2.34 GB

Sinopsis

En un futuro cercano, cuando las comunicaciones se desconectan en una remota central nuclear aislada en el desierto, un joven inspector de seguridad, Abby Dixon, se ve obligado a volar para ponerlos en línea. Una vez dentro de la instalación, las pistas misteriosas y los comportamientos extraños hacen que Abby tenga dudas sobre la cordura, y quizás las identidades, de los dos empleados en el lugar.

Ficha técnica

  • Titulo original: Atomica
  • Fecha de lanzamiento: 17-03-2017 (United States of America)
  • Director: Dagen Merrill
  • Género: Ciencia ficción, Suspense
  • Puntuación: 1.0 1 votos
  • Duración:
    1h 22m

Video trailer de la película

Enlaces de descarga

Descargar Atomica (2017) 1080p Latino
Descargar

dpeliculas

Aportes de DPeliculasHDmega la pass es:dpeliculashdmega.org Aportes de CinemaniaHD la pass es:cinemaniahdd.com
Guardado en : Ciencia ficción , Suspense

Películas relacionadas

  • Star Trek: En la oscuridad (2013) Full 1080p Latino

    2013
    Star Trek: En la oscuridad (2013) Full 1080p Latino

    5.0 2 h 12 min 2013

    Cuando a la tripulación de la nave Enterprise le ordenan que regrese a casa, en la Tierra se enfrentan...

    Director: Vanessa Meier

    Género: Acción

    Actores: Zoe Saldana

  • Arrow (2017) Temporada 6 WEBDL 1080p Latino

    2012
    Arrow (2017) Temporada 6 WEBDL 1080p Latino

    2.3 0h 42m 2012

    Con el futuro del equipo pendiendo de un hilo, Arrow le dio una nueva definición a la frase “explotar...

    Director: Marc Guggenheim

    Género: Acción

    Actores: Willa Holland

  • Dulce venganza (2016) 1080p Latino

    2016
    Dulce venganza (2016) 1080p Latino

    2.0 1 h 34 min 2016

    Un asesino de élite llamado Frank, tras ser traicionado por unos gángsters, es enviado a una cirujana...

    Director: Walter Hill

    Género: Acción

    Actores: Zak Santiago

  • Línea mortal: Al límite (2017) 1080p Latino

    2017
    Línea mortal: Al límite (2017) 1080p Latino

    3.0 1 h 49 min 2017

    Un grupo de jóvenes estudiantes de medicina llevan a cabo un experimento que implica una muerte provocada...

    Director: Niels Arden Oplev

    Género: Ciencia ficción

    Actores: Wendy Raquel Robinson

Comentarios 12
  • rig79 - 23 septiembre, 2017

    Esta no es la pelicula nueva de charlize theron info equivocada corrijan por fa

    • dpelis

      Administrador
      - 23 septiembre, 2017

      gracias, la sinopsis estaba mala fue corregida

  • Manuel Sandoval - 23 septiembre, 2017

    Está publicación está mal, en las imagenes se ve una película y el trailer es de otra 🙁

    • dpelis

      Administrador
      - 23 septiembre, 2017

      si ya fue corregida, gracias

  • El Chocho del Mimi - 23 septiembre, 2017

    Es una película de bajo presuesto ?? Podrían agregar el imdb (la calificación de las películas) ??? Sería bueno tener alguna opinión o puntaje de los críticos sobre las pelis. A veces el trailer es engañoso.

    • dpelis

      Administrador
      - 23 septiembre, 2017

      si trataremos

  • Sergio - 23 septiembre, 2017

    Hola, queria comentarles de un pequeño error, El titulo, la portada y las capturas pertenecen a la pelicula Atomica que es la que se descarga. Mientras que la sinopsis y el trailer pertenecen a la pelicula Atomic Blonde. Esto puede generar confusiones.

    • dpelis

      Administrador
      - 23 septiembre, 2017

      si mi estimado. fue reparado

  • Jorge Mario - 23 septiembre, 2017

    Buenos días, esta atómica es la de SyFy, no la de Charlize Teron

    • dpelis

      Administrador
      - 23 septiembre, 2017

      es lo correcto,

  • Raul - 23 septiembre, 2017

    Creo que se equivocaron de sinopsis y de trailer, ya que de la pelicula que ustedes estan hablando es “atomica blonde” y la pelicula que estan subiendo es solamente atomica o tambien conocida como Deep Burial

    • dpelis

      Administrador
      - 23 septiembre, 2017

      si estimado, ya fue reparada