Advertise here

Bates motel (2017) Temporada 5 WEB-DL 1080p Latino [Actualiza-ble]

2.047 vistas
1 estrella2 estrellas3 estrellas4 estrellas5 estrellas (Ninguna valoración todavía)
Cargando…

Información de Bates motel (2017) Temporada 5 WEB-DL 1080p Latino [Actualiza-ble]

Datos de la película

  • Calidad: WEBDL
  • Audio: Se especifica abajo de la Sinopsis
  • Subtitulos: Español Latino SRT - Ingles SRT
  • Resolución: 1920x1080p
  • Formato: MKV
  • Codec: H.264
  • Encoder: Dpelis1
  • Mediainfo: Clic para Mostrar Datos Ver
  • Video
    ID                                       : 1
    Format                                   : AVC
    Format/Info                              : Advanced Video Codec
    Format profile                           : High@L4.1
    Format settings, CABAC                   : Yes
    Format settings, RefFrames               : 4 frames
    Codec ID                                 : V_MPEG4/ISO/AVC
    Duration                                 : 43 min 58 s
    Bit rate                                 : 6 709 kb/s
    Width                                    : 1 920 pixels
    Height                                   : 1 080 pixels
    Display aspect ratio                     : 16:9
    Frame rate mode                          : Constant
    Frame rate                               : 23.976 (24000/1001) FPS
    Color space                              : YUV
    Chroma subsampling                       : 4:2:0
    Bit depth                                : 8 bits
    Scan type                                : Progressive
    Bits/(Pixel*Frame)                       : 0.135
    Stream size                              : 2.06 GiB (88%)
    Writing library                          : x264 core 148 r2744kMod b97ae06
    Encoding settings                        : cabac=1 / ref=4 / deblock=1:-3:-3 / analyse=0x3:0x113 / me=umh / subme=10 / psy=1 / fade_compensate=0.00 / psy_rd=1.00:0.00 / mixed_ref=1 / me_range=48 / chroma_me=1 / trellis=2 / 8x8dct=1 / cqm=0 / deadzone=21,11 / fast_pskip=0 / chroma_qp_offset=-2 / threads=12 / lookahead_threads=2 / sliced_threads=0 / nr=0 / decimate=1 / interlaced=0 / bluray_compat=0 / constrained_intra=0 / bframes=9 / b_pyramid=2 / b_adapt=2 / b_bias=0 / direct=3 / weightb=1 / open_gop=0 / weightp=2 / keyint=250 / keyint_min=23 / scenecut=40 / intra_refresh=0 / rc_lookahead=40 / rc=crf / mbtree=0 / crf=19.5000 / qcomp=0.60 / qpmin=0 / qpmax=69 / qpstep=4 / vbv_maxrate=50000 / vbv_bufsize=65000 / crf_max=0.0 / nal_hrd=none / filler=0 / ip_ratio=1.40 / pb_ratio=1.30 / aq=3:0.80
    Default                                  : Yes
    Forced                                   : No

    Audio #1
    ID                                       : 2
    Format                                   : AC-3
    Format/Info                              : Audio Coding 3
    Format settings, Endianness              : Big
    Codec ID                                 : A_AC3
    Duration                                 : 43 min 59 s
    Bit rate mode                            : Constant
    Bit rate                                 : 256 kb/s
    Channel(s)                               : 2 channels
    Channel positions                        : Front: L R
    Sampling rate                            : 48.0 kHz
    Frame rate                               : 31.250 FPS (1536 SPF)
    Bit depth                                : 16 bits
    Compression mode                         : Lossy
    Stream size                              : 80.5 MiB (3%)
    Language                                 : Spanish
    Service kind                             : Complete Main
    Default                                  : Yes
    Forced                                   : No

    Audio #2
    ID                                       : 3
    Format                                   : E-AC-3
    Format/Info                              : Enhanced Audio Coding 3
    Format settings, Endianness              : Big
    Codec ID                                 : A_EAC3
    Duration                                 : 43 min 58 s
    Bit rate mode                            : Constant
    Bit rate                                 : 640 kb/s
    Channel(s)                               : 6 channels
    Channel positions                        : Front: L C R, Side: L R, LFE
    Sampling rate                            : 48.0 kHz
    Frame rate                               : 187.500 FPS (256 SPF)
    Compression mode                         : Lossy
    Stream size                              : 201 MiB (8%)
    Language                                 : English
    Service kind                             : Complete Main
    Default                                  : No
    Forced                                   : No

    Text #1
    ID                                       : 4
    Format                                   : UTF-8
    Codec ID                                 : S_TEXT/UTF8
    Codec ID/Info                            : UTF-8 Plain Text
    Duration                                 : 10 s 100 ms
    Bit rate                                 : 87 b/s
    Count of elements                        : 1
    Stream size                              : 110 Bytes (0%)
    Default                                  : Yes
    Forced                                   : No

    Text #2
    ID                                       : 5
    Format                                   : UTF-8
    Codec ID                                 : S_TEXT/UTF8
    Codec ID/Info                            : UTF-8 Plain Text
    Duration                                 : 43 min 33 s
    Bit rate                                 : 50 b/s
    Count of elements                        : 593
    Stream size                              : 16.1 KiB (0%)
    Language                                 : Spanish
    Default                                  : No
    Forced                                   : No

    Text #3
    ID                                       : 6
    Format                                   : UTF-8
    Codec ID                                 : S_TEXT/UTF8
    Codec ID/Info                            : UTF-8 Plain Text
    Duration                                 : 43 min 20 s
    Bit rate                                 : 63 b/s
    Count of elements                        : 863
    Stream size                              : 20.2 KiB (0%)
    Language                                 : English
    Default                                  : No
    Forced                                   : No

  • Peso: 2 GB Aprox por capitulo

Sinopsis

Descargar gratis Bates motel (2017) Temporada 5 WEB-DL 1080p Latino. Precuela contemporánea de la película Psicosis, que nos hace un retrato íntimo de cómo se desarrolla la psique de Norman Bates durante sus años de adolescencia. Los fans descbrirán su historia de trasfondo oscuro y retorcido y conocerán de primera mano cuán profundamente intrincada es la relación con su madre, Norma, y cómo ello ayudó a forjar a uno de los asesinos en serie más famoso de todos los tiempos.

Nota: Audio Latino AC3 2.0 (Extraido de Universal PLAY) – Ingles E-AC3 5.1 (AMZN)

Agradecimientos a AudioPlus por el audio

Ficha técnica

Video trailer de la película

Enlaces de descarga

Descargar Bates motel (2017) Temporada 5 WEB-DL 1080p Latino [Actualiza-ble]
Descargar

dpeliculas

Aportes de DPeliculasHDmega la pass es:dpeliculashdmega.org Aportes de CinemaniaHD la pass es:cinemaniahdd.com
Guardado en : Drama , Misterio , Series

Películas relacionadas

  • La montaña entre nosotros (2017) 1080p Latino

    2017
    La montaña entre nosotros (2017) 1080p Latino

    0.0 1h 43m 2017

    Adaptación de la novela de Charles Martin. La historia sigue a dos personas distintas, Ashley es una...

    Director: Tim Macarthur

    Género: Aventura

    Actores: Waleed Zuaiter

  • El francotirador (1978) Full 1080p Latino

    1978
    El francotirador (1978) Full 1080p Latino

    0.0 3h 2m 1978

    Descargar Pelicula El francotirador 1978 hd latino Unos amigos de un pequeño pueblo industrial acuden...

    Director: Michael Cimino

    Género: Drama

    Actores: Vitoon Winwitoon

  • Arrow (2017) Temporada 6 WEBDL 1080p Latino

    2012
    Arrow (2017) Temporada 6 WEBDL 1080p Latino

    2.3 0h 42m 2012

    Con el futuro del equipo pendiendo de un hilo, Arrow le dio una nueva definición a la frase “explotar...

    Director: Marc Guggenheim

    Género: Acción

    Actores: Willa Holland

Comentarios 7
  • Cristian - 17 octubre, 2017

    Muchas gracias! me costó llegar a los enlaces pero se pudo y la calidad de los capítulos es excelente. Saludos

  • itofeddy - 20 septiembre, 2017

    Es la única temporada que han publicado?
    Piensan subir las otras 4? Gracias

    • dpelis

      Administrador
      - 20 septiembre, 2017

      si. se agregaran despues

  • Juan Carlos - 09 septiembre, 2017

    Una pregunta, esa tal AudioPlus es alguna pagina para descargar audios? en todo caso me la pasas?

  • Rodri - 09 septiembre, 2017

    Cuando van a estar el resto de los capitulos? De todas formas, agradezco un monton el que hayan subido esta grandiosa serie!

  • Jhefferson - 04 septiembre, 2017

    Muchas gracias me llevo esta y la T3 de ballers espero que pronto suban la T1 y la T2 de ballers :v

  • El Chompiras - 03 septiembre, 2017

    Gracias por el aporte. Esta serie, particularmente, no me gusta, pero agradezco el esfuerzo por compartir. Si es posible, me encantaría que suban otras series para toda la familia, como “Anne with an E”. Les agradezco nuevamente!