Advertise here

Batman del futuro: El regreso del Joker (2000) Ful Latino

660 vistas
1 estrella2 estrellas3 estrellas4 estrellas5 estrellas (Ninguna valoración todavía)
Cargando…

Información de Batman del futuro: El regreso del Joker (2000) Ful Latino

Datos de la película

  • Calidad: Full 1080p
  • Audio: Español Latino AC3 2.0 BLURAY - Ingles DTS 5.1 BLURAY
  • Subtitulos: Español Latino PGS - Ingles PGS
  • Resolución: 1920x1080p
  • Formato: MKV
  • Codec: H.264
  • Encoder: Dpelis1
  • Mediainfo: Clic para Mostrar Datos Ver
  • Video
    ID                                       : 1
    Format                                   : AVC
    Format/Info                              : Advanced Video Codec
    Format profile                           : High@L4.1
    Format settings, CABAC                   : Yes
    Format settings, RefFrames               : 4 frames
    Codec ID                                 : V_MPEG4/ISO/AVC
    Duration                                 : 1 h 16 min
    Bit rate                                 : 1 980 kb/s
    Width                                    : 1 920 pixels
    Height                                   : 1 080 pixels
    Display aspect ratio                     : 16:9
    Frame rate mode                          : Constant
    Frame rate                               : 23.976 (24000/1001) FPS
    Color space                              : YUV
    Chroma subsampling                       : 4:2:0
    Bit depth                                : 8 bits
    Scan type                                : Progressive
    Bits/(Pixel*Frame)                       : 0.040
    Stream size                              : 1.06 GiB (53%)
    Writing library                          : x264 core 148 r2708 86b7198
    Encoding settings                        : cabac=1 / ref=4 / deblock=1:0:0 / analyse=0x3:0x133 / me=umh / subme=10 / psy=1 / psy_rd=1.00:0.00 / mixed_ref=1 / me_range=24 / chroma_me=1 / trellis=2 / 8x8dct=1 / cqm=0 / deadzone=21,11 / fast_pskip=1 / chroma_qp_offset=-2 / threads=34 / lookahead_threads=5 / sliced_threads=0 / nr=0 / decimate=1 / interlaced=0 / bluray_compat=0 / constrained_intra=0 / bframes=8 / b_pyramid=2 / b_adapt=2 / b_bias=0 / direct=3 / weightb=1 / open_gop=0 / weightp=2 / keyint=240 / keyint_min=24 / scenecut=40 / intra_refresh=0 / rc_lookahead=60 / rc=crf / mbtree=1 / crf=20.0 / qcomp=0.60 / qpmin=0 / qpmax=69 / qpstep=4 / vbv_maxrate=62500 / vbv_bufsize=78125 / crf_max=0.0 / nal_hrd=none / filler=0 / ip_ratio=1.40 / aq=1:1.00
    Default                                  : Yes
    Forced                                   : No
    Color range                              : Limited
    Color primaries                          : BT.709
    Transfer characteristics                 : BT.709
    Matrix coefficients                      : BT.709

    Audio #1
    ID                                       : 2
    Format                                   : AC-3
    Format/Info                              : Audio Coding 3
    Format settings, Endianness              : Big
    Codec ID                                 : A_AC3
    Duration                                 : 1 h 16 min
    Bit rate mode                            : Constant
    Bit rate                                 : 192 kb/s
    Channel(s)                               : 2 channels
    Channel positions                        : Front: L R
    Sampling rate                            : 48.0 kHz
    Frame rate                               : 31.250 FPS (1536 SPF)
    Bit depth                                : 16 bits
    Compression mode                         : Lossy
    Stream size                              : 105 MiB (5%)
    Title                                    : Stereo
    Language                                 : Spanish
    Service kind                             : Complete Main
    Default                                  : Yes
    Forced                                   : No

    Audio #2
    ID                                       : 3
    Format                                   : DTS
    Format/Info                              : Digital Theater Systems
    Mode                                     : 16
    Format settings, Endianness              : Big
    Codec ID                                 : A_DTS
    Duration                                 : 1 h 16 min
    Bit rate mode                            : Constant
    Bit rate                                 : 1 509 kb/s
    Channel(s)                               : 6 channels
    Channel positions                        : Front: L C R, Side: L R, LFE
    Sampling rate                            : 48.0 kHz
    Frame rate                               : 93.750 FPS (512 SPF)
    Bit depth                                : 24 bits
    Compression mode                         : Lossy
    Stream size                              : 829 MiB (40%)
    Title                                    : Surround
    Language                                 : English
    Default                                  : No
    Forced                                   : No

    Text #1
    ID                                       : 4
    Format                                   : PGS
    Codec ID                                 : S_HDMV/PGS
    Codec ID/Info                            : Picture based subtitle format used on BDs/HD-DVDs
    Language                                 : Spanish
    Default                                  : No
    Forced                                   : No

    Text #2
    ID                                       : 5
    Format                                   : PGS
    Codec ID                                 : S_HDMV/PGS
    Codec ID/Info                            : Picture based subtitle format used on BDs/HD-DVDs
    Language                                 : English
    Default                                  : No
    Forced                                   : No

    Menu
    00:00:00.000                             : :Chapter 1
    00:08:09.489                             : :Chapter 2
    00:10:31.131                             : :Chapter 3
    00:11:43.703                             : :Chapter 4
    00:14:36.292                             : :Chapter 5
    00:19:54.193                             : :Chapter 6
    00:21:13.397                             : :Chapter 7
    00:24:11.617                             : :Chapter 8
    00:25:06.463                             : :Chapter 9
    00:30:34.833                             : :Chapter 10
    00:34:11.508                             : :Chapter 11
    00:45:02.742                             : :Chapter 12
    00:46:11.560                             : :Chapter 13
    00:47:52.828                             : :Chapter 14
    00:51:26.834                             : :Chapter 15
    00:53:45.431                             : :Chapter 16
    00:59:41.286                             : :Chapter 17
    01:11:35.708                             : :Chapter 18

  • Peso: 2,01 GB

Sinopsis

Descargar gratis Batman del futuro: El regreso del Joker (2000) Ful Latino. Joker no murio y ahra es más fuerte. Terry MacGinnis, el Batman del Futuro se enfrentará al enemigo de su mentor, Bruce Wayne.

Ficha técnica

  • Titulo original: Batman Beyond: Return of the Joker
  • Fecha de lanzamiento: 12-12-2000 (United States of America)
  • Director: Curt Geda
  • Género: Animación, Familia
  • Puntuación: 0.0 0 votos
  • Duración:
    0h 0m

Video trailer de la película

Enlaces de descarga

Descargar Batman del futuro: El regreso del Joker (2000) Ful Latino
Descargar

dpeliculas

Aportes de DPeliculasHDmega la pass es:dpeliculashdmega.org Aportes de CinemaniaHD la pass es:cinemaniahdd.com
Guardado en : Animación , Familia

Películas relacionadas

  • La LEGO Ninjago pelicula (2017) Full 1080p Latino

    2017
    La LEGO Ninjago pelicula (2017) Full 1080p Latino

    4.0 1h 40m 2017

    Una tierra lejana amenazada por la oscuridad. En este lugar llamado Ninjago, las fuerzas del bien y del...

    Director: Paul Fisher

    Género: Acción

    Actores: Zach Woods

  • El libro de la selva (2016) Full 1080p Latino

    2016
    El libro de la selva (2016) Full 1080p Latino

    5.0 1h 45m 2016

    Después de ser abandonado en la selva, una familia de lobos cría al pequeño cachorro humano Mowgli....

    Director: Jon Favreau

    Género: Aventura

    Actores: Sean W. Johnson

  • El Regalo Prometido (1996) Full 1080p Latino

    1996
    El Regalo Prometido (1996) Full 1080p Latino

    0.0 1 h 29 min 1996

    Howard Langston es un atareado hombre de negocios que llega tarde a la clase de karate de su hijo Jamie....

    Director: Brian Levant

    Género: Comedia

    Actores: Sinbad

  • La LEGO Ninjago pelicula (2017) 1080p Latino

    2017
    La LEGO Ninjago pelicula (2017) 1080p Latino

    0.0 1h 40m 2017

    En la película, la batalla por Ninjago City llama la atención del joven maestro constructor Lloyd (Ninja...

    Director: Paul Fisher

    Género: Acción

    Actores: Zach Woods

Comentarios 3
  • dan - 03 octubre, 2017

    estimado, es la version sin censura?

    • dpelis

      Administrador
      - 04 octubre, 2017

      no se si hay otra version

  • jose angel - 24 septiembre, 2017

    mas peliculas animadas de batman, y de la liga de la justicia por favor X3