Advertise here

Batman La LEGO película (2017) 3D OU Full Latino

440 vistas
1 estrella2 estrellas3 estrellas4 estrellas5 estrellas (Ninguna valoración todavía)
Cargando…

Información de Batman La LEGO película (2017) 3D OU Full Latino

Datos de la película

  • Calidad: Full 1080p
  • Audio: Español Latino AC3 5.1 BLURAY - Ingles DTS 5.1 BLURAY
  • Subtitulos: Español Latino PGS - Ingles PGS
  • Resolución: 1920x1080p
  • Formato: MKV
  • Codec: H.264
  • Encoder: Dpelis
  • Mediainfo: Clic para Mostrar Datos Ver
  • Batman La LEGO película 2017 Full 3D OU Latino.mkv
    Format                      : Matroska
    Format version              : Version 4 / Version 2
    File size                   : 8.23 GiB
    Duration                    : 1 h 44 min
    Overall bit rate            : 11.3 Mb/s
    Movie name                  : DPeliculasHDMega.ORG
    Encoded date                : UTC 2017-06-19 13:46:56
    Writing application         : mkvmerge v10.0.0 ('To Drown In You') 64bit
    Writing library             : libebml v1.3.4 + libmatroska v1.4.5

    Video
    ID                          : 1
    Format                      : AVC
    Format/Info                 : Advanced Video Codec
    Format profile              : High@L4.1
    Format settings, CABAC      : Yes
    Format settings, ReFrames   : 2 frames
    Format settings, GOP        : M=3, N=24
    Codec ID                    : V_MPEG4/ISO/AVC
    Duration                    : 1 h 44 min
    Bit rate                    : 8 010 kb/s
    Width                       : 1 920 pixels
    Height                      : 1 080 pixels
    Display aspect ratio        : 16:9
    Frame rate mode             : Constant
    Frame rate                  : 23.976 (24000/1001) FPS
    Color space                 : YUV
    Chroma subsampling          : 4:2:0
    Bit depth                   : 8 bits
    Scan type                   : Progressive
    Bits/(Pixel*Frame)          : 0.161
    Stream size                 : 5.85 GiB (71%)
    Writing library             : x264 core 142
    Encoding settings           : cabac=1 / ref=1 / deblock=1:-1:-1 / analyse=0x3:0 / me=hex / subme=5 / psy=0 / mixed_ref=0 / me_range=16 / chroma_me=1 / trellis=0 / 8x8dct=1 / cqm=0 / deadzone=21,11 / fast_pskip=0 / chroma_qp_offset=0 / threads=8 / lookahead_threads=2 / sliced_threads=0 / nr=0 / decimate=1 / interlaced=0 / bluray_compat=0 / constrained_intra=0 / bframes=2 / b_pyramid=0 / b_adapt=1 / b_bias=0 / direct=1 / weightb=0 / open_gop=0 / weightp=0 / keyint=24 / keyint_min=13 / scenecut=40 / intra_refresh=0 / rc=crf / mbtree=0 / crf=20.0 / qcomp=0.60 / qpmin=0 / qpmax=69 / qpstep=4 / ip_ratio=1.40 / pb_ratio=1.30 / aq=1:1.00
    Default                     : Yes
    Forced                      : No
    Color range                 : Limited
    Color primaries             : BT.709
    Transfer characteristics    : BT.709
    Matrix coefficients         : BT.709

    Audio #1
    ID                          : 2
    Format                      : AC-3
    Format/Info                 : Audio Coding 3
    Format settings, Endianness : Big
    Codec ID                    : A_AC3
    Duration                    : 1 h 44 min
    Bit rate mode               : Constant
    Bit rate                    : 448 kb/s
    Channel(s)                  : 6 channels
    Channel positions           : Front: L C R, Side: L R, LFE
    Sampling rate               : 48.0 kHz
    Frame rate                  : 31.250 FPS (1536 spf)
    Bit depth                   : 16 bits
    Compression mode            : Lossy
    Stream size                 : 335 MiB (4%)
    Language                    : Spanish
    Service kind                : Complete Main
    Default                     : Yes
    Forced                      : No

    Audio #2
    ID                          : 3
    Format                      : AC-3
    Format/Info                 : Audio Coding 3
    Format settings, Endianness : Big
    Codec ID                    : A_AC3
    Duration                    : 1 h 44 min
    Bit rate mode               : Constant
    Bit rate                    : 448 kb/s
    Channel(s)                  : 6 channels
    Channel positions           : Front: L C R, Side: L R, LFE
    Sampling rate               : 48.0 kHz
    Frame rate                  : 31.250 FPS (1536 spf)
    Bit depth                   : 16 bits
    Compression mode            : Lossy
    Stream size                 : 335 MiB (4%)
    Language                    : Spanish
    Service kind                : Complete Main
    Default                     : No
    Forced                      : No

    Audio #3
    ID                          : 4
    Format                      : DTS
    Format/Info                 : Digital Theater Systems
    Format profile              : MA / Core
    Mode                        : 16
    Format settings, Endianness : Big
    Codec ID                    : A_DTS
    Duration                    : 1 h 44 min
    Bit rate mode               : Variable / Constant
    Bit rate                    : 2 319 kb/s / 1 509 kb/s
    Channel(s)                  : 6 channels
    Channel positions           : Front: L C R, Side: L R, LFE
    Sampling rate               : 48.0 kHz
    Frame rate                  : 93.750 FPS (512 spf)
    Bit depth                   : 16 bits
    Compression mode            : Lossless / Lossy
    Stream size                 : 1.69 GiB (21%)
    Language                    : English
    Default                     : No
    Forced                      : No

    Text #1
    ID                          : 5
    Format                      : PGS
    Muxing mode                 : zlib
    Codec ID                    : S_HDMV/PGS
    Codec ID/Info               : Picture based subtitle format used on BDs/HD-DVDs
    Duration                    : 1 h 44 min
    Bit rate                    : 14.6 kb/s
    Count of elements           : 4682
    Stream size                 : 10.9 MiB (0%)
    Language                    : English
    Default                     : No
    Forced                      : No

    Text #2
    ID                          : 6
    Format                      : PGS
    Muxing mode                 : zlib
    Codec ID                    : S_HDMV/PGS
    Codec ID/Info               : Picture based subtitle format used on BDs/HD-DVDs
    Duration                    : 1 h 44 min
    Bit rate                    : 13.2 kb/s
    Count of elements           : 4336
    Stream size                 : 9.84 MiB (0%)
    Language                    : Spanish
    Default                     : No
    Forced                      : No

    Text #3
    ID                          : 7
    Format                      : PGS
    Muxing mode                 : zlib
    Codec ID                    : S_HDMV/PGS
    Codec ID/Info               : Picture based subtitle format used on BDs/HD-DVDs
    Duration                    : 1 h 44 min
    Bit rate                    : 12.7 kb/s
    Count of elements           : 4414
    Stream size                 : 9.50 MiB (0%)
    Language                    : Spanish
    Default                     : No
    Forced                      : No

    Text #4
    ID                          : 8
    Format                      : PGS
    Muxing mode                 : zlib
    Codec ID                    : S_HDMV/PGS
    Codec ID/Info               : Picture based subtitle format used on BDs/HD-DVDs
    Duration                    : 1 h 42 min
    Bit rate                    : 429 b/s
    Count of elements           : 134
    Stream size                 : 324 KiB (0%)
    Language                    : Spanish
    Default                     : No
    Forced                      : No

    Text #5
    ID                          : 9
    Format                      : PGS
    Muxing mode                 : zlib
    Codec ID                    : S_HDMV/PGS
    Codec ID/Info               : Picture based subtitle format used on BDs/HD-DVDs
    Duration                    : 1 h 42 min
    Bit rate                    : 477 b/s
    Count of elements           : 144
    Stream size                 : 360 KiB (0%)
    Language                    : Spanish
    Default                     : No
    Forced                      : No

    Text #6
    ID                          : 10
    Format                      : PGS
    Muxing mode                 : zlib
    Codec ID                    : S_HDMV/PGS
    Codec ID/Info               : Picture based subtitle format used on BDs/HD-DVDs
    Duration                    : 1 h 42 min
    Bit rate                    : 477 b/s
    Count of elements           : 144
    Stream size                 : 360 KiB (0%)
    Language                    : Spanish
    Default                     : No
    Forced                      : No

    Text #7
    ID                          : 11
    Format                      : PGS
    Muxing mode                 : zlib
    Codec ID                    : S_HDMV/PGS
    Codec ID/Info               : Picture based subtitle format used on BDs/HD-DVDs
    Duration                    : 1 h 42 min
    Bit rate                    : 445 b/s
    Count of elements           : 142
    Stream size                 : 335 KiB (0%)
    Language                    : Spanish
    Default                     : No
    Forced                      : No

    Text #8
    ID                          : 12
    Format                      : PGS
    Muxing mode                 : zlib
    Codec ID                    : S_HDMV/PGS
    Codec ID/Info               : Picture based subtitle format used on BDs/HD-DVDs
    Duration                    : 1 h 42 min
    Bit rate                    : 451 b/s
    Count of elements           : 144
    Stream size                 : 340 KiB (0%)
    Language                    : Spanish
    Default                     : No
    Forced                      : No

    Menu
    00:00:00.000                : en:(01)00:00:00:000
    00:12:56.525                : en:(02)00:12:56:525
    00:22:57.793                : en:(03)00:22:57:793
    00:32:32.700                : en:(04)00:32:32:700
    00:40:58.539                : en:(05)00:40:58:539
    00:50:12.592                : en:(06)00:50:12:592
    01:00:26.456                : en:(07)01:00:26:456
    01:10:59.505                : en:(08)01:10:59:505
    01:19:30.974                : en:(09)01:19:30:974
    01:27:18.399                : en:(10)01:27:18:399
    01:36:27.156                : en:(11)01:36:27:156
    01:44:29.513                : en:(12)01:44:29:513

  • Peso: 8.23 GB

Sinopsis

Descargar La Pelicula Batman Lego 3D OU Spin-off de “La LEGO Película”, protagonizado por Batman. En esta ocasión, el irreverente Batman, que también tiene algo de artista frustrado, intentará salvar la ciudad de Gotham de un peligroso villano, el Joker. Pero no podrá hacerlo solo, y tendrá que aprender a trabajar con sus demás aliados.

 

NOTA: Incluye audio Latino Neutro y Latino con acentos Mexicano.

Ficha técnica

Video trailer de la película

Enlaces de descarga

Descargar Batman La LEGO película (2017) 3D OU Full Latino
Descargar

dpeliculas

Aportes de DPeliculasHDmega la pass es:dpeliculashdmega.org Aportes de CinemaniaHD la pass es:cinemaniahdd.com
Guardado en : Acción , Animación , Comedia , Familia , Fantasía

Películas relacionadas

  • Dulce venganza (2016) 1080p Latino

    2016
    Dulce venganza (2016) 1080p Latino

    2.0 1 h 34 min 2016

    Un asesino de élite llamado Frank, tras ser traicionado por unos gángsters, es enviado a una cirujana...

    Director: Walter Hill

    Género: Acción

    Actores: Zak Santiago

  • La hora del cambio (2017) 1080p Latino

    2017
    La hora del cambio (2017) 1080p Latino

    0.0 1 h 32 min 2017

    Los vecinos del pequeño pueblo siciliano de Pietrammare viven acostumbrados al caos que conlleva “saltarse...

    Director: Valentino Picone

    Género: Comedia

    Actores: Vincenzo Ferrera

  • La LEGO Ninjago pelicula (2017) Full 1080p Latino

    2017
    La LEGO Ninjago pelicula (2017) Full 1080p Latino

    4.0 1h 40m 2017

    Una tierra lejana amenazada por la oscuridad. En este lugar llamado Ninjago, las fuerzas del bien y del...

    Director: Paul Fisher

    Género: Acción

    Actores: Zach Woods

  • El libro de la selva (2016) Full 1080p Latino

    2016
    El libro de la selva (2016) Full 1080p Latino

    5.0 1h 45m 2016

    Después de ser abandonado en la selva, una familia de lobos cría al pequeño cachorro humano Mowgli....

    Director: Jon Favreau

    Género: Aventura

    Actores: Sean W. Johnson

Comentarios 0