Advertise here

Capitan Calzoncillos (2017) Full 1080p Latino

7.288 vistas
1 estrella2 estrellas3 estrellas4 estrellas5 estrellas (4 votos, promedio: 2,50 de 5)
Cargando…

Información de Capitan Calzoncillos (2017) Full 1080p Latino

Datos de la película

  • Calidad: Full 1080p
  • Audio: Español Latino AC3 5.1 BLURAY - Ingles DTS 5.1 BLURAY
  • Subtitulos: Español Latino PGS - Ingles PGS
  • Resolución: 1920x1080p
  • Formato: MKV
  • Codec: H.264
  • Encoder: Dpelis
  • Mediainfo: Clic para Mostrar Datos Ver
  • Captain underpants (2017) Full Latino.mkv
    Format                      : Matroska
    Format version              : Version 4 / Version 2
    File size                   : 4.33 GiB
    Duration                    : 1 h 28 min
    Overall bit rate            : 6 994 kb/s
    Movie name                  : DPeliculasHDMega.ORG
    Encoded date                : UTC 2017-08-25 23:21:05 / UTC 2017-08-25T21:07:02Z
    Writing application         : mkvmerge v10.0.0 ('To Drown In You') 64bit
    Writing library             : libebml v1.3.4 + libmatroska v1.4.5 / Lavf57.7.2

    Video
    ID                          : 1
    Format                      : AVC
    Format/Info                 : Advanced Video Codec
    Format profile              : High@L4.1
    Format settings, CABAC      : Yes
    Format settings, ReFrames   : 4 frames
    Codec ID                    : V_MPEG4/ISO/AVC
    Duration                    : 1 h 28 min
    Bit rate                    : 4 897 kb/s
    Width                       : 1 920 pixels
    Height                      : 1 080 pixels
    Display aspect ratio        : 16:9
    Frame rate mode             : Constant
    Frame rate                  : 23.976 (24000/1001) FPS
    Color space                 : YUV
    Chroma subsampling          : 4:2:0
    Bit depth                   : 8 bits
    Scan type                   : Progressive
    Bits/(Pixel*Frame)          : 0.099
    Stream size                 : 3.03 GiB (70%)
    Writing library             : x264 core 148 r2708 86b7198
    Encoding settings           : cabac=1 / ref=4 / deblock=1:0:0 / analyse=0x3:0x133 / me=esa / subme=10 / psy=1 / psy_rd=1.00:0.00 / mixed_ref=1 / me_range=24 / chroma_me=1 / trellis=2 / 8x8dct=1 / cqm=0 / deadzone=21,11 / fast_pskip=1 / chroma_qp_offset=-2 / threads=34 / lookahead_threads=5 / sliced_threads=0 / nr=0 / decimate=1 / interlaced=0 / bluray_compat=0 / constrained_intra=0 / bframes=8 / b_pyramid=2 / b_adapt=2 / b_bias=0 / direct=3 / weightb=1 / open_gop=0 / weightp=2 / keyint=240 / keyint_min=24 / scenecut=40 / intra_refresh=0 / rc_lookahead=60 / rc=crf / mbtree=1 / crf=20.0 / qcomp=0.60 / qpmin=0 / qpmax=69 / qpstep=4 / vbv_maxrate=62500 / vbv_bufsize=78125 / crf_max=0.0 / nal_hrd=none / filler=0 / ip_ratio=1.40 / aq=1:1.00
    Default                     : Yes
    Forced                      : No
    Color range                 : Limited
    Color primaries             : BT.709
    Transfer characteristics    : BT.709
    Matrix coefficients         : BT.709
    Statistics Tags Issue       : mkvmerge v10.0.0 ('To Drown In You') 64bit 2017-08-25 23:21:05 / mkvmerge v10.0.0 ('To Drown In You') 64bit 2017-08-25 23:21:05 / UTC 2017-08-25T21:07:02Z
    FromStats_BitRate           : 5001245
    FromStats_Duration          : 01:28:40.274000000
    FromStats_FrameCount        : 127559
    FromStats_StreamSize        : 3325999298

    Audio #1
    ID                          : 2
    Format                      : AC-3
    Format/Info                 : Audio Coding 3
    Format settings, Endianness : Big
    Codec ID                    : A_AC3
    Duration                    : 1 h 28 min
    Bit rate mode               : Constant
    Bit rate                    : 448 kb/s
    Channel(s)                  : 6 channels
    Channel positions           : Front: L C R, Side: L R, LFE
    Sampling rate               : 48.0 kHz
    Frame rate                  : 31.250 FPS (1536 spf)
    Bit depth                   : 16 bits
    Compression mode            : Lossy
    Stream size                 : 284 MiB (6%)
    Title                       : Surround
    Language                    : Spanish
    Service kind                : Complete Main
    Default                     : Yes
    Forced                      : No
    Statistics Tags Issue       : mkvmerge v10.0.0 ('To Drown In You') 64bit 2017-08-25 23:21:05 / mkvmerge v10.0.0 ('To Drown In You') 64bit 2017-08-25 23:21:05 / UTC 2017-08-25T21:07:02Z
    FromStats_BitRate           : 448000
    FromStats_Duration          : 01:28:40.320000000
    FromStats_FrameCount        : 166260
    FromStats_StreamSize        : 297937920

    Audio #2
    ID                          : 3
    Format                      : DTS
    Format/Info                 : Digital Theater Systems
    Format profile              : ES Matrix / Core
    Mode                        : 16
    Format settings, Endianness : Big
    Codec ID                    : A_DTS
    Duration                    : 1 h 28 min
    Bit rate mode               : Constant
    Bit rate                    : 1 509 kb/s
    Channel(s)                  : 7 channels / 6 channels
    Channel positions           : Front: L C R, Side: L R, Back: C, LFE / Front: L C R, Side: L R, LFE
    Sampling rate               : 48.0 kHz
    Frame rate                  : 93.750 FPS (512 spf)
    Bit depth                   : 24 bits
    Compression mode            : Lossy
    Stream size                 : 957 MiB (22%)
    Title                       : Surround
    Language                    : English
    Default                     : No
    Forced                      : No
    Statistics Tags Issue       : mkvmerge v10.0.0 ('To Drown In You') 64bit 2017-08-25 23:21:05 / mkvmerge v10.0.0 ('To Drown In You') 64bit 2017-08-25 23:21:05 / UTC 2017-08-25T21:07:02Z
    FromStats_BitRate           : 1508999
    FromStats_Duration          : 01:28:40.310000000
    FromStats_FrameCount        : 498779
    FromStats_StreamSize        : 1003543348

    Text #1
    ID                          : 4
    Format                      : PGS
    Muxing mode                 : zlib
    Codec ID                    : S_HDMV/PGS
    Codec ID/Info               : Picture based subtitle format used on BDs/HD-DVDs
    Language                    : Spanish
    Default                     : No
    Forced                      : No
    Statistics Tags Issue       : mkvmerge v10.0.0 ('To Drown In You') 64bit 2017-08-25 23:21:05 / mkvmerge v10.0.0 ('To Drown In You') 64bit 2017-08-25 23:21:05 / UTC 2017-08-25T21:07:02Z
    FromStats_BitRate           : 13363
    FromStats_Duration          : 01:27:33.623000000
    FromStats_FrameCount        : 2923
    FromStats_StreamSize        : 8776083

    Text #2
    ID                          : 5
    Format                      : PGS
    Muxing mode                 : zlib
    Codec ID                    : S_HDMV/PGS
    Codec ID/Info               : Picture based subtitle format used on BDs/HD-DVDs
    Language                    : English
    Default                     : No
    Forced                      : No
    Statistics Tags Issue       : mkvmerge v10.0.0 ('To Drown In You') 64bit 2017-08-25 23:21:05 / mkvmerge v10.0.0 ('To Drown In You') 64bit 2017-08-25 23:21:05 / UTC 2017-08-25T21:07:02Z
    FromStats_BitRate           : 19591
    FromStats_Duration          : 01:27:27.576000000
    FromStats_FrameCount        : 4245
    FromStats_StreamSize        : 12850918

    Menu
    00:00:00.000                : :Chapter 1
    00:03:54.359                : :Chapter 2
    00:06:58.919                : :Chapter 3
    00:10:08.441                : :Chapter 4
    00:12:58.653                : :Chapter 5
    00:15:08.658                : :Chapter 6
    00:17:44.981                : :Chapter 7
    00:20:42.783                : :Chapter 8
    00:23:45.257                : :Chapter 9
    00:25:44.668                : :Chapter 10
    00:29:26.265                : :Chapter 11
    00:33:55.659                : :Chapter 12
    00:38:24.177                : :Chapter 13
    00:42:10.194                : :Chapter 14
    00:46:12.061                : :Chapter 15
    00:52:17.801                : :Chapter 16
    00:55:02.841                : :Chapter 17
    00:57:37.621                : :Chapter 18
    01:00:57.445                : :Chapter 19
    01:04:30.116                : :Chapter 20
    01:08:24.934                : :Chapter 21
    01:11:42.089                : :Chapter 22
    01:15:44.373                : :Chapter 23
    01:19:03.155                : :Chapter 24

  • Peso: 4.33 GB

Sinopsis

Jorge y Berto son dos niños de primaria, bastante traviesos, obsesionados con los cómics a los que les gusta dibujar sus propias historietas cuyo protagonista es el Increíble Capitán Calzoncillos, un superhéroe dueño de unos calzones con poderes superelásticos que se enfrenta a perversos villanos. Las trastadas de Jorge y Berto desquician al Señor Carrasquilla, director del colegio, y un día, de manera accidental, le hipnotizan provocando su transformación en el mismísimo Capitán Calzoncillos de sus alocados tebeos.

Cada vez que alguien chasquea los dedos, el Señor Carrasquilla se transforma en este peculiar superhéroe y, para que vuelva a ser normal, solo hay que echarle agua por encima. Ahora, con el director del colegio convertido en este superhéroe tan peculiar, los pequeños deberán tratar de invertir esta situación, antes de que se les vaya completamente de las manos.

Adaptación cinematográfica de Captain Underpants, saga de libros infantiles escrita por Dav Pilkey que sigue de cerca las aventuras de este divertido superhéroe. Esta película de animación la dirige David Soren (Turbo) y cuenta en la versión original con las voces de Ed Helms (Navidades, ¿bien o en familia?, R3sacón), Kevin Hart (Jumanji: Welcome to the Jungle, Un espía y medio), Thomas Middleditch (Sillicon Valley, Pirados al rescate), Nick Kroll (Loving, Vacaciones) y Jordan Peele (Keanu, La vida en piezas).

Ficha técnica

Video trailer de la película

Enlaces de descarga

Descargar Capitan Calzoncillos (2017) Full 1080p Latino
Descargar

dpeliculas

Aportes de DPeliculasHDmega la pass es:dpeliculashdmega.org Aportes de CinemaniaHD la pass es:cinemaniahdd.com
Guardado en : Acción , Animación , Comedia , Estrenos , Familia

Películas relacionadas

  • Dulce venganza (2016) 1080p Latino

    2016
    Dulce venganza (2016) 1080p Latino

    2.0 1 h 34 min 2016

    Un asesino de élite llamado Frank, tras ser traicionado por unos gángsters, es enviado a una cirujana...

    Director: Walter Hill

    Género: Acción

    Actores: Zak Santiago

  • La hora del cambio (2017) 1080p Latino

    2017
    La hora del cambio (2017) 1080p Latino

    0.0 1 h 32 min 2017

    Los vecinos del pequeño pueblo siciliano de Pietrammare viven acostumbrados al caos que conlleva “saltarse...

    Director: Valentino Picone

    Género: Comedia

    Actores: Vincenzo Ferrera

  • La LEGO Ninjago pelicula (2017) Full 1080p Latino

    2017
    La LEGO Ninjago pelicula (2017) Full 1080p Latino

    4.0 1h 40m 2017

    Una tierra lejana amenazada por la oscuridad. En este lugar llamado Ninjago, las fuerzas del bien y del...

    Director: Paul Fisher

    Género: Acción

    Actores: Zach Woods

  • El libro de la selva (2016) Full 1080p Latino

    2016
    El libro de la selva (2016) Full 1080p Latino

    5.0 1h 45m 2016

    Después de ser abandonado en la selva, una familia de lobos cría al pequeño cachorro humano Mowgli....

    Director: Jon Favreau

    Género: Aventura

    Actores: Sean W. Johnson

Comentarios 10
  • AngelesNegros - 04 septiembre, 2017

    Descargada hace unos momentos sin ningún error. Gracias por el aporte.

  • Etgar Garcia - 29 agosto, 2017

    suban mas peliculas animadas

  • jesus trillo - 27 agosto, 2017

    No da ningun error. gracias por las peliculas

  • javier glz - 26 agosto, 2017

    gracias

  • Gibrán González - 26 agosto, 2017

    Hola Los links públicos no funcionan, saludos.

    • dpelis

      Administrador
      - 26 agosto, 2017

      que error da?

      • Gibrán González - 31 agosto, 2017

        Al dar click en paste público y después descargar, no veo los links la página ya no carga, saludos y gracias por contestar

        • dpelis

          Administrador
          - 03 septiembre, 2017

          instalar extencion hola en chrome y luego cambie la bandera del hola con eso cambia la ip y luego vuelva intentar

      • Gibrán González - 31 agosto, 2017

        Al dar click en descargar me abre otra pestaña en el navegador, intenta cargar la pagina de los link (http://linkshorten.cf/) pero ya no accedo a nada, saludos y gracias

        • dpelis

          Administrador
          - 03 septiembre, 2017

          sigue el error?