Advertise here

Castlevania (2017) Temporada 1 WEBDL 1080p Latino

3.183 vistas
1 estrella2 estrellas3 estrellas4 estrellas5 estrellas (Ninguna valoración todavía)
Cargando…

Información de Castlevania (2017) Temporada 1 WEBDL 1080p Latino

Datos de la película

  • Calidad: WEBDL
  • Audio: Español Latino AC3 5.1 Netflix - Ingles AC3 5.1 Netflix
  • Subtitulos: Español Latino SRT - Ingles SRT
  • Resolución: 1920x1080p
  • Formato: MKV
  • Codec: H.264
  • Encoder: Dpelis
  • Mediainfo: Clic para Mostrar Datos Ver
  • Castlevania S01E01 WEBDL 1080p Latino.mkv
    Format                      : Matroska
    Format version              : Version 4 / Version 2
    File size                   : 695 MiB
    Duration                    : 25 min 4 s
    Overall bit rate            : 3 877 kb/s
    Movie name                  : DPeliculasHDMega.ORG
    Encoded date                : UTC 2017-07-17 21:37:23 / UTC 2017-07-17T21:05:54Z
    Writing application         : mkvmerge v10.0.0 ('To Drown In You') 64bit
    Writing library             : libebml v1.3.4 + libmatroska v1.4.5 / Lavf57.7.2

    Video
    ID                          : 1
    Format                      : AVC
    Format/Info                 : Advanced Video Codec
    Format profile              : High@L4.1
    Format settings, CABAC      : Yes
    Format settings, ReFrames   : 4 frames
    Codec ID                    : V_MPEG4/ISO/AVC
    Duration                    : 25 min 4 s
    Bit rate                    : 3 224 kb/s
    Nominal bit rate            : 3 500 kb/s
    Width                       : 1 920 pixels
    Height                      : 1 080 pixels
    Display aspect ratio        : 16:9
    Frame rate mode             : Constant
    Frame rate                  : 23.976 (24000/1001) FPS
    Color space                 : YUV
    Chroma subsampling          : 4:2:0
    Bit depth                   : 8 bits
    Scan type                   : Progressive
    Bits/(Pixel*Frame)          : 0.065
    Stream size                 : 578 MiB (83%)
    Writing library             : x264 core 148 r2708 86b7198
    Encoding settings           : cabac=1 / ref=3 / deblock=1:0:0 / analyse=0x3:0x113 / me=hex / subme=7 / psy=1 / psy_rd=1.00:0.00 / mixed_ref=1 / me_range=16 / chroma_me=1 / trellis=1 / 8x8dct=1 / cqm=0 / deadzone=21,11 / fast_pskip=1 / chroma_qp_offset=-2 / threads=34 / lookahead_threads=5 / sliced_threads=0 / nr=0 / decimate=1 / interlaced=0 / bluray_compat=0 / constrained_intra=0 / bframes=3 / b_pyramid=2 / b_adapt=1 / b_bias=0 / direct=1 / weightb=1 / open_gop=0 / weightp=2 / keyint=240 / keyint_min=24 / scenecut=40 / intra_refresh=0 / rc_lookahead=40 / rc=abr / mbtree=1 / bitrate=3500 / ratetol=1.0 / qcomp=0.60 / qpmin=0 / qpmax=69 / qpstep=4 / vbv_maxrate=62500 / vbv_bufsize=78125 / nal_hrd=none / filler=0 / ip_ratio=1.40 / aq=1:1.00
    Default                     : Yes
    Forced                      : No
    Color range                 : Limited
    Color primaries             : BT.709
    Transfer characteristics    : BT.709
    Matrix coefficients         : BT.709
    Statistics Tags Issue       : mkvmerge v10.0.0 ('To Drown In You') 64bit 2017-07-17 21:37:23 / mkvmerge v10.0.0 ('To Drown In You') 64bit 2017-07-17 21:37:23 / UTC 2017-07-17T21:05:54Z
    FromStats_BitRate           : 3299653
    FromStats_Duration          : 00:25:03.878000000
    FromStats_FrameCount        : 36057
    FromStats_StreamSize        : 620284562

    Audio #1
    ID                          : 2
    Format                      : AC-3
    Format/Info                 : Audio Coding 3
    Format settings, Endianness : Big
    Codec ID                    : A_AC3
    Duration                    : 25 min 4 s
    Bit rate mode               : Constant
    Bit rate                    : 384 kb/s
    Channel(s)                  : 6 channels
    Channel positions           : Front: L C R, Side: L R, LFE
    Sampling rate               : 48.0 kHz
    Frame rate                  : 31.250 FPS (1536 spf)
    Bit depth                   : 16 bits
    Compression mode            : Lossy
    Stream size                 : 68.9 MiB (10%)
    Title                       : Surround
    Language                    : English
    Service kind                : Complete Main
    Default                     : Yes
    Forced                      : No
    Statistics Tags Issue       : mkvmerge v10.0.0 ('To Drown In You') 64bit 2017-07-17 21:37:23 / mkvmerge v10.0.0 ('To Drown In You') 64bit 2017-07-17 21:37:23 / UTC 2017-07-17T21:05:54Z
    FromStats_BitRate           : 384000
    FromStats_Duration          : 00:25:04.160000000
    FromStats_FrameCount        : 47005
    FromStats_StreamSize        : 72199680

    Audio #2
    ID                          : 3
    Format                      : E-AC-3
    Format/Info                 : Enhanced Audio Coding 3
    Format settings, Endianness : Big
    Codec ID                    : A_EAC3
    Duration                    : 25 min 4 s
    Bit rate mode               : Constant
    Bit rate                    : 192 kb/s
    Channel(s)                  : 6 channels
    Channel positions           : Front: L C R, Side: L R, LFE
    Sampling rate               : 48.0 kHz
    Frame rate                  : 187.500 FPS (256 spf)
    Compression mode            : Lossy
    Stream size                 : 34.4 MiB (5%)
    Service kind                : Complete Main
    Default                     : No
    Forced                      : No
    Statistics Tags Issue       : mkvmerge v10.0.0 ('To Drown In You') 64bit 2017-07-17 21:37:23 / mkvmerge v10.0.0 ('To Drown In You') 64bit 2017-07-17 21:37:23 / UTC 2017-07-17T21:05:54Z
    FromStats_BitRate           : 192000
    FromStats_Duration          : 00:25:04.160000000
    FromStats_FrameCount        : 47005
    FromStats_StreamSize        : 36099840

    Text #1
    ID                          : 4
    Format                      : UTF-8
    Codec ID                    : S_TEXT/UTF8
    Codec ID/Info               : UTF-8 Plain Text
    Language                    : Spanish
    Default                     : Yes
    Forced                      : No
    Statistics Tags Issue       : mkvmerge v10.0.0 ('To Drown In You') 64bit 2017-07-17 21:37:23 / mkvmerge v10.0.0 ('To Drown In You') 64bit 2017-07-17 21:37:23 / UTC 2017-07-17T21:05:54Z
    FromStats_BitRate           : 47
    FromStats_Duration          : 00:24:34.040000000
    FromStats_FrameCount        : 266
    FromStats_StreamSize        : 8775

    Text #2
    ID                          : 5
    Format                      : UTF-8
    Codec ID                    : S_TEXT/UTF8
    Codec ID/Info               : UTF-8 Plain Text
    Language                    : English
    Default                     : No
    Forced                      : No
    Statistics Tags Issue       : mkvmerge v10.0.0 ('To Drown In You') 64bit 2017-07-17 21:37:23 / mkvmerge v10.0.0 ('To Drown In You') 64bit 2017-07-17 21:37:23 / UTC 2017-07-17T21:05:54Z
    FromStats_BitRate           : 45
    FromStats_Duration          : 00:24:36.996000000
    FromStats_FrameCount        : 275
    FromStats_StreamSize        : 8379

  • Peso: 700MB c/u

Sinopsis

La serie de Netflix está basada en el videojuego Castlevania III: Dracula’s Curse y se ambienta en el siglo XV.

La historia del videojuego gira en torno a Trevor Belmont, un cazador de vampiros que debe enfrentarse a su mayor enemigo: Drácula. El vampiro más famoso de todos los tiempos está devastando Europa y la iglesia no tiene más remedio que llamar al clan Belmont para enfrentarse a este temible enemigo. Así, el grupo formado por Trevor, Sypha Belnades, Grant DaNasty y Alucard comienza esta cruzada para terminar con Drácula.

En el equipo técnico encontramos a los productores Adi Shankar, Kevin Kolde, Fred Seibert y Warren Ellis, guionista de los cómics. Ponen voz a las animaciones Richard Armitage (El Hobbit) , James Callis (Galáctica, estrella de combate), Graham McTavish (Preacher) , Tony Amendola (Annabelle ), Matt Frewer (Timeless), Emily Swallow (El mentalista)y Alejandra Reynoso (Winx Club), entre otros.

Ficha técnica

  • Titulo original: Castlevania Season 1
  • Fecha de lanzamiento: 07-07-2017 (United States of America)
  • Director: Sam Deats
  • Género: Acción, Animación, Series
  • Puntuación: 0.0 0 votos
  • Duración:
    0h 23m

Video trailer de la película

Enlaces de descarga

Descargar Castlevania (2017) Temporada 1 WEBDL 1080p Latino
Descargar

dpeliculas

Aportes de DPeliculasHDmega la pass es:dpeliculashdmega.org Aportes de CinemaniaHD la pass es:cinemaniahdd.com
Guardado en : Acción , Animación , Series

Películas relacionadas

  • Dulce venganza (2016) 1080p Latino

    2016
    Dulce venganza (2016) 1080p Latino

    2.0 1 h 34 min 2016

    Un asesino de élite llamado Frank, tras ser traicionado por unos gángsters, es enviado a una cirujana...

    Director: Walter Hill

    Género: Acción

    Actores: Zak Santiago

  • The Walking Dead (2017) Temporada 8 WEB-DL 1080p Latino

    2017
    The Walking Dead (2017) Temporada 8 WEB-DL 1080p Latino

    5.0 0h 42m 2017

    Rick, Maggie y Ezekiel reúnen a sus comunidades para derrotar a Negan y los salvadores. Gregory intenta...

    Director: Frank Darabont

    Género: Action & Adventure

    Actores: Norman Reedus

  • Vikingos Temporada 5 (2017) WEB-DL Amazon 1080p Latino

    2017
    Vikingos Temporada 5 (2017) WEB-DL Amazon 1080p Latino

    0.0 0h 44m 2017

    Sigue las aventuras de Ragnar Lothbrok, el héroe más grande de su época. La serie narra las sagas...

    Director: Michael Hirst

    Género: Action & Adventure

    Actores: Moe Dunford

  • La LEGO Ninjago pelicula (2017) Full 1080p Latino

    2017
    La LEGO Ninjago pelicula (2017) Full 1080p Latino

    4.0 1h 40m 2017

    Una tierra lejana amenazada por la oscuridad. En este lugar llamado Ninjago, las fuerzas del bien y del...

    Director: Paul Fisher

    Género: Acción

    Actores: Zach Woods

Comentarios 4
  • Jhefferson - 29 agosto, 2017

    Muchas Gracias por este aporte espero que netflix saque una segunda temporada

  • lalo - 13 agosto, 2017

    Gracias!!!!! =)

  • carlos - 18 julio, 2017

    buenas hay peliculas y series que ultimamente no lo pones para descargar con megas a que se debe eso?

    • dpelis

      Administrador
      - 18 julio, 2017

      ya no uso mega, es un quita tiempo subir, pero para eso se usa google drive