Advertise here

Dark (2017) WEB-DL 1080p Latino

2.441 vistas
1 estrella2 estrellas3 estrellas4 estrellas5 estrellas (1 votos, promedio: 5,00 de 5)
Cargando…

Información de Dark (2017) WEB-DL 1080p Latino

Datos de la película

  • Calidad: WEBDL
  • Audio: Se especifica abajo de la Sinopsis
  • Subtitulos: Español Latino SRT - Ingles SRT
  • Resolución: 1920X1080
  • Formato: MKV
  • Codec: H.264
  • Encoder: Dracarys
  • Mediainfo: Clic para Mostrar Datos Ver
  • Format                                   : Matroska
    Format version                           : Version 4 / Version 2
    File size                                : 1.49 GiB
    Duration                                 : 51 min 32 s
    Overall bit rate mode                    : Variable
    Overall bit rate                         : 4 130 kb/s
    Movie name                               : cinemaniahdd.com
    Encoded date                             : UTC 2017-12-04 02:18:38
    Writing application                      : mkvmerge v15.0.0 ('Duel with the Devil') 64-bit
    Writing library                          : libebml v1.3.5 + libmatroska v1.4.5

    Video
    ID                                       : 1
    Format                                   : AVC
    Format/Info                              : Advanced Video Codec
    Format profile                           : Main@L4
    Format settings                          : CABAC / 3 Ref Frames
    Format settings, CABAC                   : Yes
    Format settings, RefFrames               : 3 frames
    Codec ID                                 : V_MPEG4/ISO/AVC
    Duration                                 : 51 min 32 s
    Bit rate mode                            : Variable
    Bit rate                                 : 3 320 kb/s
    Maximum bit rate                         : 4 980 kb/s
    Width                                    : 1 920 pixels
    Height                                   : 1 080 pixels
    Display aspect ratio                     : 16:9
    Frame rate mode                          : Constant
    Frame rate                               : 24.000 FPS
    Color space                              : YUV
    Chroma subsampling                       : 4:2:0
    Bit depth                                : 8 bits
    Scan type                                : Progressive
    Bits/(Pixel*Frame)                       : 0.067
    Stream size                              : 1.19 GiB (80%)
    Title                                    : Dark (2017) WEB-DL Cap-7 1080p Latino
    Writing library                          : x264 core 148
    Encoding settings                        : cabac=1 / ref=3 / deblock=1:0:0 / analyse=0x1:0x111 / me=umh / subme=10 / psy=1 / psy_rd=1.00:0.00 / mixed_ref=1 / me_range=24 / chroma_me=1 / trellis=2 / 8x8dct=0 / cqm=0 / deadzone=21,11 / fast_pskip=1 / chroma_qp_offset=-2 / threads=8 / lookahead_threads=1 / sliced_threads=0 / nr=0 / decimate=1 / interlaced=0 / bluray_compat=0 / stitchable=1 / constrained_intra=0 / bframes=2 / b_pyramid=0 / b_adapt=2 / b_bias=0 / direct=3 / weightb=1 / open_gop=0 / weightp=2 / keyint=48 / keyint_min=25 / scenecut=0 / intra_refresh=0 / rc_lookahead=48 / rc=2pass / mbtree=1 / bitrate=3320 / ratetol=1.0 / qcomp=0.50 / qpmin=6 / qpmax=51 / qpstep=4 / cplxblur=20.0 / qblur=0.5 / vbv_maxrate=4980 / vbv_bufsize=6640 / nal_hrd=vbr / filler=0 / ip_ratio=1.40 / aq=1:1.00
    Language                                 : German
    Default                                  : Yes
    Forced                                   : No

    Audio #1
    ID                                       : 2
    Format                                   : AC-3
    Format/Info                              : Audio Coding 3
    Format settings, Endianness              : Big
    Codec ID                                 : A_AC3
    Duration                                 : 51 min 32 s
    Bit rate mode                            : Constant
    Bit rate                                 : 384 kb/s
    Channel(s)                               : 6 channels
    Channel positions                        : Front: L C R, Side: L R, LFE
    Sampling rate                            : 48.0 kHz
    Frame rate                               : 31.250 FPS (1536 SPF)
    Bit depth                                : 16 bits
    Compression mode                         : Lossy
    Stream size                              : 142 MiB (9%)
    Language                                 : Spanish
    Service kind                             : Complete Main
    Default                                  : Yes
    Forced                                   : No

    Audio #2
    ID                                       : 3
    Format                                   : E-AC-3
    Format/Info                              : Enhanced Audio Coding 3
    Format profile                           : E-AC-3+Atmos / E-AC-3
    Format settings, Endianness              : Big
    Codec ID                                 : A_EAC3
    Duration                                 : 51 min 17 s
    Bit rate mode                            : Constant
    Bit rate                                 : 448 kb/s
    Channel(s)                               : 15 objects / 6 channels
    Channel positions                        : 15 objects / Front: L C R, Side: L R, LFE
    Sampling rate                            : 48.0 kHz
    Frame rate                               : 187.500 FPS (256 SPF)
    Compression mode                         : Lossy
    Stream size                              : 164 MiB (11%)
    Language                                 : German
    Service kind                             : Complete Main
    Default                                  : No
    Forced                                   : No

    Text #1
    ID                                       : 4
    Format                                   : UTF-8
    Codec ID                                 : S_TEXT/UTF8
    Codec ID/Info                            : UTF-8 Plain Text
    Duration                                 : 50 min 26 s
    Bit rate                                 : 31 b/s
    Count of elements                        : 377
    Stream size                              : 11.6 KiB (0%)
    Language                                 : English
    Default                                  : No
    Forced                                   : No

    Text #2
    ID                                       : 5
    Format                                   : UTF-8
    Codec ID                                 : S_TEXT/UTF8
    Codec ID/Info                            : UTF-8 Plain Text
    Duration                                 : 50 min 27 s
    Bit rate                                 : 31 b/s
    Count of elements                        : 375
    Stream size                              : 11.5 KiB (0%)
    Language                                 : Spanish
    Default                                  : No
    Forced                                   : No

    Text #3
    ID                                       : 6
    Format                                   : UTF-8
    Codec ID                                 : S_TEXT/UTF8
    Codec ID/Info                            : UTF-8 Plain Text
    Duration                                 : 50 min 15 s
    Bit rate                                 : 0 b/s
    Count of elements                        : 13
    Stream size                              : 362 Bytes (0%)
    Title                                    : Forzados
    Language                                 : Spanish
    Default                                  : Yes
    Forced                                   : Yes

  • Peso: Aproximadamente 1.5 GiB X Capitulo

Sinopsis

Tras la desaparición de un niño, cuatro familias desesperadas tratan de entender lo ocurrido a medida que van desvelando un retorcido misterio que abarca tres décadas… Saga familiar con un giro sobrenatural, “Dark” se sitúa en un pueblo alemán, donde las desapariciones de dos niños dejan al descubierto las dobles vidas y las relaciones resquebrajadas entre cuatro familias. Esta historia, narrada en 10 episodios de una hora de duración, presenta un tinte sobrenatural, ya que lleva al espectador a la misma ciudad, pero en 1986.

 

 

Audios: Latino AC3 5.1 Netflix — Alemán AC3 5.1 Netflix

Capitulo 4 Reparado una disculpa.

Ficha técnica

Video trailer de la película

Enlaces de descarga

Descargar Dark (2017) WEB-DL 1080p Latino
Descargar

dpeliculas

Aportes de DPeliculasHDmega la pass es:dpeliculashdmega.org Aportes de CinemaniaHD la pass es:cinemaniahdd.com
Guardado en : Crimen , Drama , Misterio

Películas relacionadas

  • Dulce venganza (2016) 1080p Latino

    2016
    Dulce venganza (2016) 1080p Latino

    2.0 1 h 34 min 2016

    Un asesino de élite llamado Frank, tras ser traicionado por unos gángsters, es enviado a una cirujana...

    Director: Walter Hill

    Género: Acción

    Actores: Zak Santiago

  • Línea mortal: Al límite (2017) 1080p Latino

    2017
    Línea mortal: Al límite (2017) 1080p Latino

    0.0 1 h 49 min 2017

    Un grupo de jóvenes estudiantes de medicina llevan a cabo un experimento que implica una muerte provocada...

    Director: Niels Arden Oplev

    Género: Ciencia ficción

    Actores: Wendy Raquel Robinson

  • Un reino unido (2016) 1080p Latino

    2016
    Un reino unido (2016) 1080p Latino

    0.0 1 h 50 min 2016

    Biopic sobre el Príncipe Seretse Khama, el rey de Botsuana, que al contraer matrimonio en 1948 con Ruth...

    Director: Amma Asante

    Género: Drama

    Actores: Zackary Momoh

  • The Walking Dead (2017) Temporada 8 WEB-DL 1080p Latino

    2017
    The Walking Dead (2017) Temporada 8 WEB-DL 1080p Latino

    5.0 0h 42m 2017

    Rick, Maggie y Ezekiel reúnen a sus comunidades para derrotar a Negan y los salvadores. Gregory intenta...

    Director: Frank Darabont

    Género: Action & Adventure

    Actores: Norman Reedus

  • Vikingos Temporada 5 (2017) WEB-DL Amazon 1080p Latino

    2017
    Vikingos Temporada 5 (2017) WEB-DL Amazon 1080p Latino

    0.0 0h 44m 2017

    Sigue las aventuras de Ragnar Lothbrok, el héroe más grande de su época. La serie narra las sagas...

    Director: Michael Hirst

    Género: Action & Adventure

    Actores: Moe Dunford

Comentarios 17
  • David Gutierrez - 09 diciembre, 2017

    Descargué todas las partes por el servidor ONE DRIVE. El capitulo 4 está dañado, se reproduce de forma normal pero llega un momento en donde se congela la imagen y el audio continua. Los demás capítulos si están perfectos. Carguen la serie por capítulos y carguen nuevamente sólo el capitulo 4 por favor, no podré seguir viendo la serie hasta lograr ver ese capitulo completo. Son el único sitio web que ha subido la serie, ningún otro sitio la tiene disponible hasta ahora. Agradecería todo lo que pudiesen hacer, muchas gracias de antemano,

    • Dpelis2

      Autor
      - 10 diciembre, 2017

      ya se esta arreglando. una disculpa

  • Felipe Ruy - 08 diciembre, 2017

    Cual es el pass para extraer esta serie?

    • Dpelis2

      Autor
      - 08 diciembre, 2017

      cinemaniahdd.com

  • Clark - 08 diciembre, 2017

    Hola, el capitulo 4 está dañado, en el minuto 37:06 se salta al final, saludos.

    • dpelis

      Administrador
      - 10 diciembre, 2017

      resubido el capitulo

      • clark - 10 diciembre, 2017

        acabo de descargar la serie por tercera vez y el capito 4 sigue dañado (desde google drive), lo puedes solucionar por favor? gracias

        • Dpelis2

          Autor
          - 10 diciembre, 2017

          el capitulo arreglado este en otro paste por favor ver bien. saludos

  • David Gutierrez - 04 diciembre, 2017

    ¿Podrían subir los links en el servidor de MEGA, por favor?. Estaré muy agradecido por el aporte. Voy a estar esperándolos para poder disfrutar de ésta serie que promete.

    • Dpelis2

      Autor
      - 05 diciembre, 2017

      Ya subido

      • David Gutierrez - 05 diciembre, 2017

        Gracias por subirlos pero me está ocurriendo un problema con los enlaces de mega (paste publico) de ésta página, tanto en para ésta serie como en algunas otras películas que he intentado descargar. No sé si los enlaces están caídos o si los archivos no se cargaron realmente al servidor de MEGA. Revisen eso, por favor. Quiero ver la serie y no se encuentra en ningún otro sitio web debido a lo reciente de su publicación. Adjunto te anexo un capture de pantalla al abrir cualesquiera de los enlaces de MEGA: https://prnt.sc/hjetk3

        • Dpelis2

          Autor
          - 05 diciembre, 2017

          Eso es por que los enlaces públicos están Encriptados solo los puedes descargar con un gestor de descarga

          • David Gutierrez - 05 diciembre, 2017

            Todas las descargas las hago con el gestor de descargas de MEGA sin ningún problema, de hecho, he realizado otras descargas desde este sitio usando links de MEGA, pero como te digo, tengo este problema solo con algunas películas y series. Seguí el turpial que tienen acá mismo y no me reconoce los enlaces.

            • dpelis

              Administrador
              - 06 diciembre, 2017

              entonces actulizar el gestor descargar

              • David Gutierrez - 06 diciembre, 2017

                Si, eso haré. Muchas gracias por responder y por la aclaratoria.

                • David Gutierrez - 06 diciembre, 2017

                  Ya actualicé el gestor de descargas pero cuando intento acceder a los links de MEGA, me sale un mensaje distinto al anterior. https://prnt.sc/hjpi8l

                • Dpelis2

                  Autor
                  - 06 diciembre, 2017

                  Y si lo descargar por Google Drive? es igual de Rapido que mega….