Advertise here

Deadpool (2016) Full 1080p Latino

946 vistas
1 estrella2 estrellas3 estrellas4 estrellas5 estrellas (1 votos, promedio: 5,00 de 5)
Cargando…

Información de Deadpool (2016) Full 1080p Latino

Datos de la película

  • Calidad: Full 1080p
  • Audio: Español Latino AC3 5.1 BLURAY - Ingles DTS 5.1 BLURAY
  • Subtitulos: Español Latino PGS - Ingles PGS
  • Resolución: 1920X1080p
  • Formato: MKV
  • Codec: H.264
  • Encoder: Dracarys
  • Mediainfo: Clic para Mostrar Datos Ver
  • Format                                   : Matroska
    Format version                           : Version 4 / Version 2
    File size                                : 5.27 GiB
    Duration                                 : 1 h 48 min
    Overall bit rate                         : 6 974 kb/s
    Movie name                               : CinemaniaHDD.com
    Encoded date                             : UTC 2017-12-07 23:55:49 / UTC 2017-12-06T22:26:16Z
    Writing application                      : mkvmerge v15.0.0 ('Duel with the Devil') 64-bit
    Writing library                          : libebml v1.3.5 + libmatroska v1.4.5 / Lavf57.7.2

    Video
    ID                                       : 1
    Format                                   : AVC
    Format/Info                              : Advanced Video Codec
    Format profile                           : High@L4.1
    Format settings                          : CABAC / 4 Ref Frames
    Format settings, CABAC                   : Yes
    Format settings, RefFrames               : 4 frames
    Codec ID                                 : V_MPEG4/ISO/AVC
    Duration                                 : 1 h 48 min
    Bit rate                                 : 4 878 kb/s
    Width                                    : 1 920 pixels
    Height                                   : 1 080 pixels
    Display aspect ratio                     : 16:9
    Frame rate mode                          : Constant
    Frame rate                               : 23.976 (24000/1001) FPS
    Color space                              : YUV
    Chroma subsampling                       : 4:2:0
    Bit depth                                : 8 bits
    Scan type                                : Progressive
    Bits/(Pixel*Frame)                       : 0.098
    Stream size                              : 3.68 GiB (70%)
    Title                                    : Deadpool (2016) Full 1080p Latino
    Writing library                          : x264 core 148 r2708 86b7198
    Encoding settings                        : cabac=1 / ref=4 / deblock=1:0:0 / analyse=0x3:0x133 / me=esa / subme=10 / psy=1 / psy_rd=1.00:0.00 / mixed_ref=1 / me_range=24 / chroma_me=1 / trellis=2 / 8x8dct=1 / cqm=0 / deadzone=21,11 / fast_pskip=1 / chroma_qp_offset=-2 / threads=34 / lookahead_threads=5 / sliced_threads=0 / nr=0 / decimate=1 / interlaced=0 / bluray_compat=0 / constrained_intra=0 / bframes=8 / b_pyramid=2 / b_adapt=2 / b_bias=0 / direct=3 / weightb=1 / open_gop=0 / weightp=2 / keyint=240 / keyint_min=24 / scenecut=40 / intra_refresh=0 / rc_lookahead=60 / rc=crf / mbtree=1 / crf=20.0 / qcomp=0.60 / qpmin=0 / qpmax=69 / qpstep=4 / vbv_maxrate=62500 / vbv_bufsize=78125 / crf_max=0.0 / nal_hrd=none / filler=0 / ip_ratio=1.40 / aq=1:1.00
    Language                                 : English
    Default                                  : Yes
    Forced                                   : No
    Color range                              : Limited
    Color primaries                          : BT.709
    Transfer characteristics                 : BT.709
    Matrix coefficients                      : BT.709
    Statistics Tags Issue                    : mkvmerge v15.0.0 ('Duel with the Devil') 64-bit 2017-12-07 23:55:49 / mkvmerge v15.0.0 ('Duel with the Devil') 64-bit 2017-12-07 23:55:49 / UTC 2017-12-06T22:26:16Z
    FromStats_BitRate                        : 4990109
    FromStats_Duration                       : 01:48:06.188000000
    FromStats_FrameCount                     : 155513
    FromStats_StreamSize                     : 4045848163

    Audio #1
    ID                                       : 2
    Format                                   : AC-3
    Format/Info                              : Audio Coding 3
    Format settings, Endianness              : Big
    Codec ID                                 : A_AC3
    Duration                                 : 1 h 48 min
    Bit rate mode                            : Constant
    Bit rate                                 : 448 kb/s
    Channel(s)                               : 6 channels
    Channel positions                        : Front: L C R, Side: L R, LFE
    Sampling rate                            : 48.0 kHz
    Frame rate                               : 31.250 FPS (1536 SPF)
    Bit depth                                : 16 bits
    Compression mode                         : Lossy
    Stream size                              : 346 MiB (6%)
    Title                                    : AC3-Bluray
    Language                                 : Spanish
    Service kind                             : Complete Main
    Default                                  : Yes
    Forced                                   : No
    Statistics Tags Issue                    : mkvmerge v15.0.0 ('Duel with the Devil') 64-bit 2017-12-07 23:55:49 / mkvmerge v15.0.0 ('Duel with the Devil') 64-bit 2017-12-07 23:55:49 / UTC 2017-12-06T22:26:16Z
    FromStats_BitRate                        : 448000
    FromStats_Duration                       : 01:48:06.240000000
    FromStats_FrameCount                     : 202695
    FromStats_StreamSize                     : 363229440

    Audio #2
    ID                                       : 3
    Format                                   : DTS
    Format/Info                              : Digital Theater Systems
    Format profile                           : ES Matrix / Core
    Mode                                     : 16
    Format settings, Endianness              : Big
    Codec ID                                 : A_DTS
    Duration                                 : 1 h 48 min
    Bit rate mode                            : Constant
    Bit rate                                 : 1 509 kb/s
    Channel(s)                               : 7 channels / 6 channels
    Channel positions                        : Front: L C R, Side: L R, Back: C, LFE / Front: L C R, Side: L R, LFE
    Sampling rate                            : 48.0 kHz
    Frame rate                               : 93.750 FPS (512 SPF)
    Bit depth                                : 24 bits
    Compression mode                         : Lossy
    Stream size                              : 1.14 GiB (22%)
    Title                                    : DTS-Bluray
    Language                                 : English
    Default                                  : No
    Forced                                   : No
    Statistics Tags Issue                    : mkvmerge v15.0.0 ('Duel with the Devil') 64-bit 2017-12-07 23:55:49 / mkvmerge v15.0.0 ('Duel with the Devil') 64-bit 2017-12-07 23:55:49 / UTC 2017-12-06T22:26:16Z
    FromStats_BitRate                        : 1508999
    FromStats_Duration                       : 01:48:06.230000000
    FromStats_FrameCount                     : 608084
    FromStats_StreamSize                     : 1223465008

    Text #1
    ID                                       : 4
    Format                                   : PGS
    Muxing mode                              : zlib
    Codec ID                                 : S_HDMV/PGS
    Codec ID/Info                            : Picture based subtitle format used on BDs/HD-DVDs
    Language                                 : Spanish
    Default                                  : No
    Forced                                   : No
    Statistics Tags Issue                    : mkvmerge v15.0.0 ('Duel with the Devil') 64-bit 2017-12-07 23:55:49 / mkvmerge v15.0.0 ('Duel with the Devil') 64-bit 2017-12-07 23:55:49 / UTC 2017-12-06T22:26:16Z
    FromStats_BitRate                        : 34852
    FromStats_Duration                       : 01:47:08.089000000
    FromStats_FrameCount                     : 2740
    FromStats_StreamSize                     : 28004611

    Text #2
    ID                                       : 5
    Format                                   : PGS
    Muxing mode                              : zlib
    Codec ID                                 : S_HDMV/PGS
    Codec ID/Info                            : Picture based subtitle format used on BDs/HD-DVDs
    Language                                 : English
    Default                                  : No
    Forced                                   : No
    Statistics Tags Issue                    : mkvmerge v15.0.0 ('Duel with the Devil') 64-bit 2017-12-07 23:55:49 / mkvmerge v15.0.0 ('Duel with the Devil') 64-bit 2017-12-07 23:55:49 / UTC 2017-12-06T22:26:16Z
    FromStats_BitRate                        : 43999
    FromStats_Duration                       : 01:47:39.286000000
    FromStats_FrameCount                     : 3704
    FromStats_StreamSize                     : 35525538

    Menu
    00:00:00.000                             : :Chapter 1
    00:03:04.726                             : :Chapter 2
    00:05:53.019                             : :Chapter 3
    00:09:30.820                             : :Chapter 4
    00:13:19.090                             : :Chapter 5
    00:16:48.716                             : :Chapter 6
    00:20:12.545                             : :Chapter 7
    00:22:06.408                             : :Chapter 8
    00:27:09.628                             : :Chapter 9
    00:31:58.959                             : :Chapter 10
    00:36:51.710                             : :Chapter 11
    00:41:06.172                             : :Chapter 12
    00:44:45.766                             : :Chapter 13
    00:46:56.605                             : :Chapter 14
    00:50:10.966                             : :Chapter 15
    00:53:18.028                             : :Chapter 16
    00:55:33.038                             : :Chapter 17
    00:59:07.753                             : :Chapter 18
    01:03:05.240                             : :Chapter 19
    01:07:06.439                             : :Chapter 20
    01:09:15.568                             : :Chapter 21
    01:12:29.720                             : :Chapter 22
    01:16:46.393                             : :Chapter 23
    01:20:43.714                             : :Chapter 24
    01:25:53.398                             : :Chapter 25
    01:31:03.792                             : :Chapter 26
    01:34:46.973                             : :Chapter 27
    01:39:52.737                             : :Chapter 28

  • Peso: 5.27 GiB

Sinopsis

Basado en el anti-héroe menos convencional de la Marvel, Deadpool narra el origen de un ex-operativo de la fuerzas especiales llamado Wade Wilson, reconvertido a mercenario, y que tras ser sometido a un cruel experimento adquiere poderes de curación rápida, adoptando Wade entonces el alter ego de Deadpool. Armado con sus nuevas habilidades y un oscuro y retorcido sentido del humor, Deadpool intentará dar caza al hombre que casi destruye su vida.

Ficha técnica

Video trailer de la película

Enlaces de descarga

Descargar Deadpool (2016) Full 1080p Latino
Descargar

dpeliculas

Aportes de DPeliculasHDmega la pass es:dpeliculashdmega.org Aportes de CinemaniaHD la pass es:cinemaniahdd.com

Películas relacionadas

  • Dulce venganza (2016) 1080p Latino

    2016
    Dulce venganza (2016) 1080p Latino

    2.0 1 h 34 min 2016

    Un asesino de élite llamado Frank, tras ser traicionado por unos gángsters, es enviado a una cirujana...

    Director: Walter Hill

    Género: Acción

    Actores: Zak Santiago

  • La hora del cambio (2017) 1080p Latino

    2017
    La hora del cambio (2017) 1080p Latino

    0.0 1 h 32 min 2017

    Los vecinos del pequeño pueblo siciliano de Pietrammare viven acostumbrados al caos que conlleva “saltarse...

    Director: Valentino Picone

    Género: Comedia

    Actores: Vincenzo Ferrera

  • Vikingos Temporada 5 (2017) WEB-DL Amazon 1080p Latino

    2017
    Vikingos Temporada 5 (2017) WEB-DL Amazon 1080p Latino

    0.0 0h 44m 2017

    Sigue las aventuras de Ragnar Lothbrok, el héroe más grande de su época. La serie narra las sagas...

    Director: Michael Hirst

    Género: Action & Adventure

    Actores: Moe Dunford

  • La LEGO Ninjago pelicula (2017) Full 1080p Latino

    2017
    La LEGO Ninjago pelicula (2017) Full 1080p Latino

    4.0 1h 40m 2017

    Una tierra lejana amenazada por la oscuridad. En este lugar llamado Ninjago, las fuerzas del bien y del...

    Director: Paul Fisher

    Género: Acción

    Actores: Zach Woods

Comentarios 2
  • Marcelo - 08 diciembre, 2017

    Estoy tratando de colocar la contraseña brinda y no puedo descargarla. Me podrías brindar la correcta por favor? Buenos aportes

    • Dpelis2

      Autor
      - 08 diciembre, 2017

      cinemaniahdd.com