Advertise here

El Circulo (2017) 1080p Latino

2.061 vistas
1 estrella2 estrellas3 estrellas4 estrellas5 estrellas (Ninguna valoración todavía)
Cargando…

Información de El Circulo (2017) 1080p Latino

Datos de la película

  • Calidad: 1080p
  • Audio: Español Latino AC3 2.0 Capturado - Ingles AC3 5.1 BLURAY
  • Subtitulos: Español Latino SRT
  • Resolución: 1920x800p
  • Formato: MKV
  • Codec: H.264
  • Encoder: Dpelis
  • Mediainfo: Clic para Mostrar Datos Ver
  • The Circle (2017) 1080p Latino.mkv
    Format                      : Matroska
    Format version              : Version 4 / Version 2
    File size                   : 3.12 GiB
    Duration                    : 1 h 49 min
    Overall bit rate            : 4 074 kb/s
    Movie name                  : DPeliculasHDMega.ORG
    Encoded date                : UTC 2017-09-25 17:47:23 / UTC 2017-09-25T16:25:13Z
    Writing application         : mkvmerge v10.0.0 ('To Drown In You') 64bit
    Writing library             : libebml v1.3.4 + libmatroska v1.4.5 / Lavf57.7.2

    Video
    ID                          : 1
    Format                      : AVC
    Format/Info                 : Advanced Video Codec
    Format profile              : High@L4.1
    Format settings, CABAC      : Yes
    Format settings, RefFrames  : 4 frames
    Codec ID                    : V_MPEG4/ISO/AVC
    Duration                    : 1 h 49 min
    Bit rate                    : 3 500 kb/s
    Width                       : 1 920 pixels
    Height                      : 800 pixels
    Display aspect ratio        : 2.40:1
    Frame rate mode             : Constant
    Frame rate                  : 23.976 (24000/1001) FPS
    Color space                 : YUV
    Chroma subsampling          : 4:2:0
    Bit depth                   : 8 bits
    Scan type                   : Progressive
    Bits/(Pixel*Frame)          : 0.095
    Stream size                 : 2.62 GiB (84%)
    Writing library             : x264 core 148 r2708 86b7198
    Encoding settings           : cabac=1 / ref=3 / deblock=1:0:0 / analyse=0x3:0x113 / me=hex / subme=7 / psy=1 / psy_rd=1.00:0.00 / mixed_ref=1 / me_range=16 / chroma_me=1 / trellis=1 / 8x8dct=1 / cqm=0 / deadzone=21,11 / fast_pskip=1 / chroma_qp_offset=-2 / threads=25 / lookahead_threads=4 / sliced_threads=0 / nr=0 / decimate=1 / interlaced=0 / bluray_compat=0 / constrained_intra=0 / bframes=3 / b_pyramid=2 / b_adapt=1 / b_bias=0 / direct=1 / weightb=1 / open_gop=0 / weightp=2 / keyint=240 / keyint_min=24 / scenecut=40 / intra_refresh=0 / rc_lookahead=40 / rc=2pass / mbtree=1 / bitrate=3500 / ratetol=1.0 / qcomp=0.60 / qpmin=0 / qpmax=69 / qpstep=4 / cplxblur=20.0 / qblur=0.5 / vbv_maxrate=62500 / vbv_bufsize=78125 / nal_hrd=none / filler=0 / ip_ratio=1.40 / aq=1:1.00
    Default                     : Yes
    Forced                      : No
    Color range                 : Limited
    Color primaries             : BT.709
    Transfer characteristics    : BT.709
    Matrix coefficients         : BT.709
    Statistics Tags Issue       : mkvmerge v10.0.0 ('To Drown In You') 64bit 2017-09-25 17:47:23 / mkvmerge v10.0.0 ('To Drown In You') 64bit 2017-09-25 17:47:23 / UTC 2017-09-25T16:25:13Z
    FromStats_BitRate           : 3496087
    FromStats_Duration          : 01:49:47.123000000
    FromStats_FrameCount        : 157933
    FromStats_StreamSize        : 2878645001

    Audio #1
    ID                          : 2
    Format                      : AC-3
    Format/Info                 : Audio Coding 3
    Format settings, Endianness : Big
    Codec ID                    : A_AC3
    Duration                    : 1 h 49 min
    Bit rate mode               : Constant
    Bit rate                    : 192 kb/s
    Channel(s)                  : 2 channels
    Channel positions           : Front: L R
    Sampling rate               : 48.0 kHz
    Frame rate                  : 31.250 FPS (1536 SPF)
    Bit depth                   : 16 bits
    Compression mode            : Lossy
    Delay relative to video     : 3 ms
    Stream size                 : 151 MiB (5%)
    Language                    : Spanish
    Service kind                : Complete Main
    Default                     : Yes
    Forced                      : No
    Statistics Tags Issue       : mkvmerge v10.0.0 ('To Drown In You') 64bit 2017-09-25 17:47:23 / mkvmerge v10.0.0 ('To Drown In You') 64bit 2017-09-25 17:47:23 / UTC 2017-09-25T16:25:13Z
    FromStats_BitRate           : 192000
    FromStats_Duration          : 01:49:46.976000000
    FromStats_FrameCount        : 205843
    FromStats_StreamSize        : 158087424

    Audio #2
    ID                          : 3
    Format                      : AC-3
    Format/Info                 : Audio Coding 3
    Format settings, Endianness : Big
    Codec ID                    : A_AC3
    Duration                    : 1 h 49 min
    Bit rate mode               : Constant
    Bit rate                    : 384 kb/s
    Channel(s)                  : 6 channels
    Channel positions           : Front: L C R, Side: L R, LFE
    Sampling rate               : 48.0 kHz
    Frame rate                  : 31.250 FPS (1536 SPF)
    Bit depth                   : 16 bits
    Compression mode            : Lossy
    Delay relative to video     : -5 ms
    Stream size                 : 302 MiB (9%)
    Title                       : Surround
    Language                    : English
    Service kind                : Complete Main
    Default                     : No
    Forced                      : No
    Statistics Tags Issue       : mkvmerge v10.0.0 ('To Drown In You') 64bit 2017-09-25 17:47:23 / mkvmerge v10.0.0 ('To Drown In You') 64bit 2017-09-25 17:47:23 / UTC 2017-09-25T16:25:13Z
    FromStats_BitRate           : 384000
    FromStats_Duration          : 01:49:47.136000000
    FromStats_FrameCount        : 205848
    FromStats_StreamSize        : 316182528

    Text
    ID                          : 4
    Format                      : UTF-8
    Codec ID                    : S_TEXT/UTF8
    Codec ID/Info               : UTF-8 Plain Text
    Language                    : Spanish
    Default                     : No
    Forced                      : No
    Statistics Tags Issue       : mkvmerge v10.0.0 ('To Drown In You') 64bit 2017-09-25 17:47:23 / mkvmerge v10.0.0 ('To Drown In You') 64bit 2017-09-25 17:47:23 / UTC 2017-09-25T16:25:13Z
    FromStats_BitRate           : 80
    FromStats_Duration          : 01:40:40.565000000
    FromStats_FrameCount        : 1619
    FromStats_StreamSize        : 60658

    Menu
    00:00:00.000                : :Chapter 1
    00:06:04.489                : :Chapter 2
    00:11:53.004                : :Chapter 3
    00:19:05.186                : :Chapter 4
    00:26:58.659                : :Chapter 5
    00:32:36.163                : :Chapter 6
    00:39:19.566                : :Chapter 7
    00:46:00.341                : :Chapter 8
    00:51:28.294                : :Chapter 9
    00:59:33.278                : :Chapter 10
    01:07:45.645                : :Chapter 11
    01:14:28.255                : :Chapter 12
    01:24:32.150                : :Chapter 13
    01:31:28.358                : :Chapter 14
    01:34:59.527                : :Chapter 15
    01:40:35.863                : :Chapter 16

  • Peso: 3.12 GB

Sinopsis

Mae Holland (Emma Watson) acaba de ser contratada para trabajar en El Círculo, la empresa de internet más prestigiosa del mundo. La joven está entusiasmada por formar parte de una compañía tecnológica puntera que, además, ofrece fiestas y múltiples actividades a sus empleados que se celebran dentro de la oficina. Pero poco a poco, Mae empieza a descubrir que bajo esa amigable fachada se esconde una compañía que ejerce un excesivo control que no sólo afecta a sus empleados, sino también al resto de usuarios de la Red.

Esta adaptación de la novela homónima escrita por David Eggers está dirigida por James Ponsoldt (Aquí y ahora, Tocando fondo). El reparto protagonista está formado por Emma Watson (La bella y la bestia, Regresión), John Boyega (Tinkershrimp & Dutch, Star Wars: Episodio VII – El despertar de la Fuerza), Karen Gillan (Guardianes de la galaxia Vol. 2, La gran apuesta), Ellar Coltrane (Barry, Boyhood (Momentos de una vida)), y Tom Hanks (Sully, El puente de los espías).

Ficha técnica

Video trailer de la película

Enlaces de descarga

Descargar El Circulo (2017) 1080p Latino
Descargar

dpeliculas

Aportes de DPeliculasHDmega la pass es:dpeliculashdmega.org Aportes de CinemaniaHD la pass es:cinemaniahdd.com
Guardado en : Ciencia ficción , Drama , Suspense

Películas relacionadas

  • La montaña entre nosotros (2017) Full 1080p Latino

    2017
    La montaña entre nosotros (2017) Full 1080p Latino

    0.0 1 h 51 min 2017

    Abandonados a su suerte después de un trágico accidente aéreo, Ben Bass (Idris Elba) y Alex Martin...

    Director: Tim Macarthur

    Género: Aventura

    Actores: Waleed Zuaiter

  • La montaña entre nosotros (2017) 1080p Latino

    2017
    La montaña entre nosotros (2017) 1080p Latino

    4.0 1h 43m 2017

    Adaptación de la novela de Charles Martin. La historia sigue a dos personas distintas, Ashley es una...

    Director: Tim Macarthur

    Género: Aventura

    Actores: Waleed Zuaiter

  • El francotirador (1978) Full 1080p Latino

    1978
    El francotirador (1978) Full 1080p Latino

    0.0 3h 2m 1978

    Descargar Pelicula El francotirador 1978 hd latino Unos amigos de un pequeño pueblo industrial acuden...

    Director: Michael Cimino

    Género: Drama

    Actores: Vitoon Winwitoon

Comentarios 4
  • seba - 15 octubre, 2017

    saldrá en gris ??? o no ??? gracias

    • dpelis

      Administrador
      - 15 octubre, 2017

      cuando haya audio 5.1

  • seba - 26 septiembre, 2017

    esperando la gris 🙂 gracias

  • YO - 25 septiembre, 2017

    ME PODRIA PASAR SOLO EL AUDIO¡