Advertise here

El fugitivo (1993) Full 1080p Latino

970 vistas
1 estrella2 estrellas3 estrellas4 estrellas5 estrellas (1 votos, promedio: 5,00 de 5)
Cargando…

Información de El fugitivo (1993) Full 1080p Latino

Datos de la película

  • Calidad: Full 1080p
  • Audio: Español Latino AC3 2.0 BLURAY - Ingles DTS 5.1 BLURAY
  • Subtitulos: Español Latino PGS - Ingles PGS
  • Resolución: 1920X1080P
  • Formato: MKV
  • Codec: H.264
  • Encoder: Dpelis
  • Mediainfo: Clic para Mostrar Datos Ver
  • The Fugite (1993) Full 1080p Latino.mkv
    Format                      : Matroska
    Format version              : Version 4 / Version 2
    File size                   : 11.2 GiB
    Duration                    : 2 h 10 min
    Overall bit rate            : 12.3 Mb/s
    Movie name                  : DPeliculasHDMega.ORG
    Encoded date                : UTC 2017-09-22 00:19:18 / UTC 2017-09-20T04:27:39Z
    Writing application         : mkvmerge v10.0.0 ('To Drown In You') 64bit
    Writing library             : libebml v1.3.4 + libmatroska v1.4.5 / Lavf57.7.2

    Video
    ID                          : 1
    Format                      : AVC
    Format/Info                 : Advanced Video Codec
    Format profile              : High@L4.1
    Format settings, CABAC      : Yes
    Format settings, RefFrames  : 4 frames
    Codec ID                    : V_MPEG4/ISO/AVC
    Duration                    : 2 h 10 min
    Bit rate                    : 10.3 Mb/s
    Width                       : 1 920 pixels
    Height                      : 1 080 pixels
    Display aspect ratio        : 16:9
    Frame rate mode             : Constant
    Frame rate                  : 23.976 (24000/1001) FPS
    Color space                 : YUV
    Chroma subsampling          : 4:2:0
    Bit depth                   : 8 bits
    Scan type                   : Progressive
    Bits/(Pixel*Frame)          : 0.208
    Stream size                 : 9.41 GiB (84%)
    Writing library             : x264 core 148 r2708 86b7198
    Encoding settings           : cabac=1 / ref=4 / deblock=1:0:0 / analyse=0x3:0x133 / me=esa / subme=10 / psy=1 / psy_rd=1.00:0.00 / mixed_ref=1 / me_range=24 / chroma_me=1 / trellis=2 / 8x8dct=1 / cqm=0 / deadzone=21,11 / fast_pskip=1 / chroma_qp_offset=-2 / threads=34 / lookahead_threads=5 / sliced_threads=0 / nr=0 / decimate=1 / interlaced=0 / bluray_compat=0 / constrained_intra=0 / bframes=8 / b_pyramid=2 / b_adapt=2 / b_bias=0 / direct=3 / weightb=1 / open_gop=0 / weightp=2 / keyint=240 / keyint_min=24 / scenecut=40 / intra_refresh=0 / rc_lookahead=60 / rc=crf / mbtree=1 / crf=20.0 / qcomp=0.60 / qpmin=0 / qpmax=69 / qpstep=4 / vbv_maxrate=62500 / vbv_bufsize=78125 / crf_max=0.0 / nal_hrd=none / filler=0 / ip_ratio=1.40 / aq=1:1.00
    Default                     : Yes
    Forced                      : No
    Color range                 : Limited
    Color primaries             : BT.709
    Transfer characteristics    : BT.709
    Matrix coefficients         : BT.709
    Statistics Tags Issue       : mkvmerge v10.0.0 ('To Drown In You') 64bit 2017-09-22 00:19:18 / mkvmerge v10.0.0 ('To Drown In You') 64bit 2017-09-22 00:19:18 / UTC 2017-09-20T04:27:39Z
    FromStats_BitRate           : 10564655
    FromStats_Duration          : 02:10:16.642000000
    FromStats_FrameCount        : 187412
    FromStats_StreamSize        : 10322516190

    Audio #1
    ID                          : 2
    Format                      : AC-3
    Format/Info                 : Audio Coding 3
    Mode                        : Dolby Digital
    Format settings, Endianness : Big
    Codec ID                    : A_AC3
    Duration                    : 2 h 10 min
    Bit rate mode               : Constant
    Bit rate                    : 192 kb/s
    Channel(s)                  : 2 channels
    Channel positions           : Front: L R
    Sampling rate               : 48.0 kHz
    Frame rate                  : 31.250 FPS (1536 SPF)
    Bit depth                   : 16 bits
    Compression mode            : Lossy
    Stream size                 : 179 MiB (2%)
    Title                       : Stereo
    Language                    : Spanish
    Service kind                : Complete Main
    Default                     : Yes
    Forced                      : No
    Statistics Tags Issue       : mkvmerge v10.0.0 ('To Drown In You') 64bit 2017-09-22 00:19:18 / mkvmerge v10.0.0 ('To Drown In You') 64bit 2017-09-22 00:19:18 / UTC 2017-09-20T04:27:39Z
    FromStats_BitRate           : 192000
    FromStats_Duration          : 02:10:16.704000000
    FromStats_FrameCount        : 244272
    FromStats_StreamSize        : 187600896

    Audio #2
    ID                          : 3
    Format                      : DTS
    Format/Info                 : Digital Theater Systems
    Mode                        : 16
    Format settings, Endianness : Big
    Codec ID                    : A_DTS
    Duration                    : 2 h 10 min
    Bit rate mode               : Constant
    Bit rate                    : 1 509 kb/s
    Channel(s)                  : 6 channels
    Channel positions           : Front: L C R, Side: L R, LFE
    Sampling rate               : 48.0 kHz
    Frame rate                  : 93.750 FPS (512 SPF)
    Bit depth                   : 24 bits
    Compression mode            : Lossy
    Stream size                 : 1.37 GiB (12%)
    Title                       : Surround
    Language                    : English
    Default                     : No
    Forced                      : No
    Statistics Tags Issue       : mkvmerge v10.0.0 ('To Drown In You') 64bit 2017-09-22 00:19:18 / mkvmerge v10.0.0 ('To Drown In You') 64bit 2017-09-22 00:19:18 / UTC 2017-09-20T04:27:39Z
    FromStats_BitRate           : 1508999
    FromStats_Duration          : 02:10:16.683000000
    FromStats_FrameCount        : 732814
    FromStats_StreamSize        : 1474421768

    Text #1
    ID                          : 4
    Format                      : PGS
    Muxing mode                 : zlib
    Codec ID                    : S_HDMV/PGS
    Codec ID/Info               : Picture based subtitle format used on BDs/HD-DVDs
    Language                    : Spanish
    Default                     : No
    Forced                      : No
    Statistics Tags Issue       : mkvmerge v10.0.0 ('To Drown In You') 64bit 2017-09-22 00:19:18 / mkvmerge v10.0.0 ('To Drown In You') 64bit 2017-09-22 00:19:18 / UTC 2017-09-20T04:27:39Z
    FromStats_BitRate           : 9531
    FromStats_Duration          : 02:09:29.720000000
    FromStats_FrameCount        : 2534
    FromStats_StreamSize        : 9257202

    Text #2
    ID                          : 5
    Format                      : PGS
    Muxing mode                 : zlib
    Codec ID                    : S_HDMV/PGS
    Codec ID/Info               : Picture based subtitle format used on BDs/HD-DVDs
    Language                    : English
    Default                     : No
    Forced                      : No
    Statistics Tags Issue       : mkvmerge v10.0.0 ('To Drown In You') 64bit 2017-09-22 00:19:18 / mkvmerge v10.0.0 ('To Drown In You') 64bit 2017-09-22 00:19:18 / UTC 2017-09-20T04:27:39Z
    FromStats_BitRate           : 11277
    FromStats_Duration          : 02:08:54.226000000
    FromStats_FrameCount        : 2774
    FromStats_StreamSize        : 10902684

    Menu
    00:00:00.000                : :Chapter 1
    00:04:51.458                : :Chapter 2
    00:09:40.955                : :Chapter 3
    00:12:59.779                : :Chapter 4
    00:14:51.599                : :Chapter 5
    00:16:36.746                : :Chapter 6
    00:18:54.342                : :Chapter 7
    00:20:22.012                : :Chapter 8
    00:23:10.306                : :Chapter 9
    00:25:36.076                : :Chapter 10
    00:26:31.632                : :Chapter 11
    00:29:48.328                : :Chapter 12
    00:31:27.761                : :Chapter 13
    00:34:23.979                : :Chapter 14
    00:36:46.996                : :Chapter 15
    00:38:04.616                : :Chapter 16
    00:39:43.798                : :Chapter 17
    00:42:20.913                : :Chapter 18
    00:45:36.776                : :Chapter 19
    00:48:37.081                : :Chapter 20
    00:50:08.214                : :Chapter 21
    00:53:28.580                : :Chapter 22
    00:56:02.693                : :Chapter 23
    00:59:21.975                : :Chapter 24
    01:02:54.646                : :Chapter 25
    01:07:46.312                : :Chapter 26
    01:13:51.344                : :Chapter 27
    01:15:43.414                : :Chapter 28
    01:19:18.295                : :Chapter 29
    01:21:55.911                : :Chapter 30
    01:24:44.663                : :Chapter 31
    01:29:49.134                : :Chapter 32
    01:35:28.598                : :Chapter 33
    01:37:01.065                : :Chapter 34
    01:40:55.258                : :Chapter 35
    01:44:26.302                : :Chapter 36
    01:50:06.183                : :Chapter 37
    01:54:45.295                : :Chapter 38
    01:58:30.270                : :Chapter 39
    02:02:43.773                : :Chapter 40
    02:04:07.023                : :Chapter 41
    02:05:52.462                : :Chapter 42

  • Peso: 11.2 GB

Sinopsis

El doctor Richard Kimble es un prestigioso cirujano de Chicago con una vida prácticamente perfecta: una bella esposa, una casa de lujo en un elegante barrio de Chicago… Su vida se desmorona el día que su mujer es brutalmente asesinada en manos de un misterioso hombre manco. Kimble es acusado del crimen y, aunque él es inocente, es sentenciado con la pena de muerte. Camino de la cárcel, el autobús donde es transportado Kimble sufre un accidente de tráfico. Varios prisioneros consiguen escapar, entre ellos el propio Kimble. El detective Samuel Gerard es el encargado de realizar la investigación. Todos los fugados son atrapados, excepto el esquivo Kimble, que se le escapa de las manos por unos segundos. Ahora que está en libertad, Kimble sabe que solamente tiene una manera de probar su inocencia: encontrar al verdadero asesino. Perseguido por Gerard, inicia la búsqueda del manco.

Ficha técnica

Video trailer de la película

Enlaces de descarga

Descargar El fugitivo (1993) Full 1080p Latino
Descargar

dpeliculas

Aportes de DPeliculasHDmega la pass es:dpeliculashdmega.org Aportes de CinemaniaHD la pass es:cinemaniahdd.com

Películas relacionadas

  • Barry Seal: solo en América (2017) 1080p Latino

    2017
    Barry Seal: solo en América (2017) 1080p Latino

    0.0 1 h 54 min 2017

    Basada en la vida real de Barry Seal, un expiloto que se convirtió en un importante narcotraficante...

    Director: Nick DiRosa

    Género: Acción

    Actores: William Mark McCullough

  • Línea mortal: al límite (2017) Full 1080p Latino

    2017
    Línea mortal: al límite (2017) Full 1080p Latino

    0.0 1 h 49 min 2017

    Remake del clasico de los 90 Línea mortal (Flatliners). Un grupo de jóvenes estudiantes de medicina...

    Director: Niels Arden Oplev

    Género: Ciencia ficción

    Actores: Wendy Raquel Robinson

  • La montaña entre nosotros (2017) Full 1080p Latino

    2017
    La montaña entre nosotros (2017) Full 1080p Latino

    5.0 1 h 51 min 2017

    Abandonados a su suerte después de un trágico accidente aéreo, Ben Bass (Idris Elba) y Alex Martin...

    Director: Tim Macarthur

    Género: Aventura

    Actores: Waleed Zuaiter

  • La montaña entre nosotros (2017) 1080p Latino

    2017
    La montaña entre nosotros (2017) 1080p Latino

    4.0 1h 43m 2017

    Adaptación de la novela de Charles Martin. La historia sigue a dos personas distintas, Ashley es una...

    Director: Tim Macarthur

    Género: Aventura

    Actores: Waleed Zuaiter

Comentarios 0