Advertise here

El guardián invisible (2016) Full 1080p Español

3.391 vistas
1 estrella2 estrellas3 estrellas4 estrellas5 estrellas (3 votos, promedio: 4,67 de 5)
Cargando…

Información de El guardián invisible (2016) Full 1080p Español

Datos de la película

  • Calidad: Full 1080p
  • Audio: Español DTS 5.1 BLURAY
  • Subtitulos: Español PGS
  • Resolución: 1920x1080p
  • Formato: MKV
  • Codec: H.264
  • Encoder: Dpelis
  • Mediainfo: Clic para Mostrar Datos Ver
  • El guardian invisible 2016 Full 1080p.mkv
    Format                      : Matroska
    Format version              : Version 4 / Version 2
    File size                   : 2.56 GiB
    Duration                    : 2 h 9 min
    Overall bit rate            : 2 842 kb/s
    Movie name                  : DPeliculasHDMega.ORG
    Encoded date                : UTC 2017-06-25 21:45:37 / UTC 2017-06-22T12:57:04Z
    Writing application         : mkvmerge v8.9.0 ('Father Daughter') 64bit
    Writing library             : libebml v1.3.3 + libmatroska v1.4.4 / Lavf57.7.2

    Video
    ID                          : 1
    Format                      : AVC
    Format/Info                 : Advanced Video Codec
    Format profile              : High@L4.1
    Format settings, CABAC      : Yes
    Format settings, ReFrames   : 4 frames
    Codec ID                    : V_MPEG4/ISO/AVC
    Duration                    : 2 h 9 min
    Bit rate                    : 1 276 kb/s
    Width                       : 1 920 pixels
    Height                      : 1 080 pixels
    Display aspect ratio        : 16:9
    Frame rate mode             : Constant
    Frame rate                  : 24.000 FPS
    Color space                 : YUV
    Chroma subsampling          : 4:2:0
    Bit depth                   : 8 bits
    Scan type                   : Progressive
    Bits/(Pixel*Frame)          : 0.026
    Stream size                 : 1.15 GiB (45%)
    Writing library             : x264 core 148 r2708 86b7198
    Encoding settings           : cabac=1 / ref=4 / deblock=1:0:0 / analyse=0x3:0x133 / me=esa / subme=10 / psy=1 / psy_rd=1.00:0.00 / mixed_ref=1 / me_range=24 / chroma_me=1 / trellis=2 / 8x8dct=1 / cqm=0 / deadzone=21,11 / fast_pskip=1 / chroma_qp_offset=-2 / threads=34 / lookahead_threads=5 / sliced_threads=0 / nr=0 / decimate=1 / interlaced=0 / bluray_compat=0 / constrained_intra=0 / bframes=8 / b_pyramid=2 / b_adapt=2 / b_bias=0 / direct=3 / weightb=1 / open_gop=0 / weightp=2 / keyint=240 / keyint_min=24 / scenecut=40 / intra_refresh=0 / rc_lookahead=60 / rc=crf / mbtree=1 / crf=20.0 / qcomp=0.60 / qpmin=0 / qpmax=69 / qpstep=4 / vbv_maxrate=62500 / vbv_bufsize=78125 / crf_max=0.0 / nal_hrd=none / filler=0 / ip_ratio=1.40 / aq=1:1.00
    Default                     : Yes
    Forced                      : No
    Color range                 : Limited
    Color primaries             : BT.709
    Transfer characteristics    : BT.709
    Matrix coefficients         : BT.709
    Statistics Tags Issue       : mkvmerge v8.9.0 ('Father Daughter') 64bit 2017-06-25 21:45:37 / mkvmerge v8.9.0 ('Father Daughter') 64bit 2017-06-25 21:45:37 / UTC 2017-06-22T12:57:04Z
    FromStats_BitRate           : 2069027
    FromStats_Duration          : 02:09:05.667000000
    FromStats_FrameCount        : 185896
    FromStats_StreamSize        : 2003249995

    Audio
    ID                          : 2
    Format                      : DTS
    Format/Info                 : Digital Theater Systems
    Mode                        : 16
    Format settings, Endianness : Big
    Codec ID                    : A_DTS
    Duration                    : 2 h 9 min
    Bit rate mode               : Constant
    Bit rate                    : 1 509 kb/s
    Channel(s)                  : 6 channels
    Channel positions           : Front: L C R, Side: L R, LFE
    Sampling rate               : 48.0 kHz
    Frame rate                  : 93.750 FPS (512 spf)
    Bit depth                   : 16 bits
    Compression mode            : Lossy
    Stream size                 : 1.36 GiB (53%)
    Title                       : Stereo
    Language                    : Spanish
    Default                     : Yes
    Forced                      : No
    Statistics Tags Issue       : mkvmerge v8.9.0 ('Father Daughter') 64bit 2017-06-25 21:45:37 / mkvmerge v8.9.0 ('Father Daughter') 64bit 2017-06-25 21:45:37 / UTC 2017-06-22T12:57:04Z
    FromStats_BitRate           : 769818
    FromStats_Duration          : 02:09:05.707000000
    FromStats_FrameCount        : 726160
    FromStats_StreamSize        : 745348456

    Text #1
    ID                          : 3
    Format                      : PGS
    Muxing mode                 : zlib
    Codec ID                    : S_HDMV/PGS
    Codec ID/Info               : Picture based subtitle format used on BDs/HD-DVDs
    Language                    : Spanish
    Default                     : No
    Forced                      : No
    Statistics Tags Issue       : mkvmerge v8.9.0 ('Father Daughter') 64bit 2017-06-25 21:45:37 / mkvmerge v8.9.0 ('Father Daughter') 64bit 2017-06-25 21:45:37 / UTC 2017-06-22T12:57:04Z
    FromStats_BitRate           : 567
    FromStats_Duration          : 02:03:46.089000000
    FromStats_FrameCount        : 188
    FromStats_StreamSize        : 526791

    Text #2
    ID                          : 4
    Format                      : UTF-8
    Codec ID                    : S_TEXT/UTF8
    Codec ID/Info               : UTF-8 Plain Text
    Language                    : Spanish
    Default                     : Yes
    Forced                      : No
    Statistics Tags Issue       : mkvmerge v8.9.0 ('Father Daughter') 64bit 2017-06-25 21:45:37 / mkvmerge v8.9.0 ('Father Daughter') 64bit 2017-06-25 21:45:37 / UTC 2017-06-22T12:57:04Z
    FromStats_BitRate           : 92
    FromStats_Duration          : 00:00:10.100000000
    FromStats_FrameCount        : 1
    FromStats_StreamSize        : 117

    Menu
    00:00:00.000                : :Chapter 1
    00:13:46.208                : :Chapter 2
    00:25:07.000                : :Chapter 3
    00:38:10.375                : :Chapter 4
    00:51:12.208                : :Chapter 5
    01:04:51.000                : :Chapter 6
    01:18:15.292                : :Chapter 7
    01:29:43.667                : :Chapter 8
    01:42:15.667                : :Chapter 9
    01:53:27.000                : :Chapter 10

  • Peso: 2.56 GB

Sinopsis

En los márgenes del río Baztán, en el valle de Navarra, aparece el cuerpo desnudo de una adolescente en una circunstancia que lo relaciona con un asesinato ocurrido un mes atrás… La inspectora Amaia Salazar dirige la investigación que la llevará de vuelta al pueblo de Elizondo, donde ella creció y del que ha tratado de huir toda su vida. Enfrentada con las complicadas derivaciones del caso y sus propios fantasmas, la investigación de Amaia es una carrera contrarreloj para dar con un implacable asesino, en una tierra fértil en supersticiones y brujería..

Ficha técnica

Video trailer de la película

Enlaces de descarga

Descargar El guardián invisible (2016) Full 1080p Español
Descargar

dpeliculas

Aportes de DPeliculasHDmega la pass es:dpeliculashdmega.org Aportes de CinemaniaHD la pass es:cinemaniahdd.com

Películas relacionadas

  • Dulce venganza (2016) 1080p Latino

    2016
    Dulce venganza (2016) 1080p Latino

    2.0 1 h 34 min 2016

    Un asesino de élite llamado Frank, tras ser traicionado por unos gángsters, es enviado a una cirujana...

    Director: Walter Hill

    Género: Acción

    Actores: Zak Santiago

  • Vikingos Temporada 5 (2017) WEB-DL Amazon 1080p Latino

    2017
    Vikingos Temporada 5 (2017) WEB-DL Amazon 1080p Latino

    0.0 0h 44m 2017

    Sigue las aventuras de Ragnar Lothbrok, el héroe más grande de su época. La serie narra las sagas...

    Director: Michael Hirst

    Género: Action & Adventure

    Actores: Moe Dunford

  • La LEGO Ninjago pelicula (2017) Full 1080p Latino

    2017
    La LEGO Ninjago pelicula (2017) Full 1080p Latino

    4.0 1h 40m 2017

    Una tierra lejana amenazada por la oscuridad. En este lugar llamado Ninjago, las fuerzas del bien y del...

    Director: Paul Fisher

    Género: Acción

    Actores: Zach Woods

  • La jugada maestra (2015) 1080p Latino

    2015
    La jugada maestra (2015) 1080p Latino

    0.0 1h 54m 2015

    "Pawn Sacrifice" (El sacrificio del peón) narra la historia de la preparación y del legendario enfrentamiento...

    Director: Edward Zwick

    Género: Drama

    Actores: Zach Fraser

Comentarios 3