Advertise here

El Sr. Henri comparte piso (2015) Full 1080p Castellano

828 vistas
1 estrella2 estrellas3 estrellas4 estrellas5 estrellas (Ninguna valoración todavía)
Cargando…

Información de El Sr. Henri comparte piso (2015) Full 1080p Castellano

Datos de la película

  • Calidad: Full 1080p
  • Audio: Español DTS 5.1 BLURAY
  • Subtitulos: Español PGS
  • Resolución: 1920x1080p
  • Formato: MKV
  • Codec: H.264
  • Encoder: Dpelis
  • Mediainfo: Clic para Mostrar Datos Ver
  • El.sr.henri.comparte.piso.2015.full.1080p.Castellano.mkv
    Format                      : Matroska
    Format version              : Version 4 / Version 2
    File size                   : 3.45 GiB
    Duration                    : 1 h 38 min
    Overall bit rate            : 4 994 kb/s
    Movie name                  : DPeliculasHDMega.ORG
    Encoded date                : UTC 2017-07-31 23:45:01 / UTC 2017-07-31T15:00:21Z
    Writing application         : mkvmerge v10.0.0 ('To Drown In You') 64bit
    Writing library             : libebml v1.3.4 + libmatroska v1.4.5 / Lavf57.7.2

    Video
    ID                          : 1
    Format                      : AVC
    Format/Info                 : Advanced Video Codec
    Format profile              : High@L4.1
    Format settings, CABAC      : Yes
    Format settings, ReFrames   : 4 frames
    Codec ID                    : V_MPEG4/ISO/AVC
    Duration                    : 1 h 38 min
    Bit rate                    : 3 386 kb/s
    Width                       : 1 920 pixels
    Height                      : 1 080 pixels
    Display aspect ratio        : 16:9
    Frame rate mode             : Constant
    Frame rate                  : 24.000 FPS
    Color space                 : YUV
    Chroma subsampling          : 4:2:0
    Bit depth                   : 8 bits
    Scan type                   : Progressive
    Bits/(Pixel*Frame)          : 0.068
    Stream size                 : 2.34 GiB (68%)
    Writing library             : x264 core 148 r2708 86b7198
    Encoding settings           : cabac=1 / ref=4 / deblock=1:0:0 / analyse=0x3:0x133 / me=esa / subme=10 / psy=1 / psy_rd=1.00:0.00 / mixed_ref=1 / me_range=24 / chroma_me=1 / trellis=2 / 8x8dct=1 / cqm=0 / deadzone=21,11 / fast_pskip=1 / chroma_qp_offset=-2 / threads=34 / lookahead_threads=5 / sliced_threads=0 / nr=0 / decimate=1 / interlaced=0 / bluray_compat=0 / constrained_intra=0 / bframes=8 / b_pyramid=2 / b_adapt=2 / b_bias=0 / direct=3 / weightb=1 / open_gop=0 / weightp=2 / keyint=240 / keyint_min=24 / scenecut=40 / intra_refresh=0 / rc_lookahead=60 / rc=crf / mbtree=1 / crf=20.0 / qcomp=0.60 / qpmin=0 / qpmax=69 / qpstep=4 / vbv_maxrate=62500 / vbv_bufsize=78125 / crf_max=0.0 / nal_hrd=none / filler=0 / ip_ratio=1.40 / aq=1:1.00
    Default                     : Yes
    Forced                      : No
    Color range                 : Limited
    Color primaries             : BT.709
    Transfer characteristics    : BT.709
    Matrix coefficients         : BT.709
    Statistics Tags Issue       : mkvmerge v10.0.0 ('To Drown In You') 64bit 2017-07-31 23:45:01 / mkvmerge v10.0.0 ('To Drown In You') 64bit 2017-07-31 23:45:01 / UTC 2017-07-31T15:00:21Z
    FromStats_BitRate           : 3472812
    FromStats_Duration          : 01:38:57.250000000
    FromStats_FrameCount        : 142494
    FromStats_StreamSize        : 2577369139

    Audio
    ID                          : 2
    Format                      : DTS
    Format/Info                 : Digital Theater Systems
    Mode                        : 16
    Format settings, Endianness : Big
    Codec ID                    : A_DTS
    Duration                    : 1 h 38 min
    Bit rate mode               : Constant
    Bit rate                    : 1 509 kb/s
    Channel(s)                  : 6 channels
    Channel positions           : Front: L C R, Side: L R, LFE
    Sampling rate               : 48.0 kHz
    Frame rate                  : 93.750 FPS (512 spf)
    Bit depth                   : 16 bits
    Compression mode            : Lossy
    Stream size                 : 1.04 GiB (30%)
    Title                       : Surround
    Language                    : Spanish
    Default                     : Yes
    Forced                      : No
    Statistics Tags Issue       : mkvmerge v10.0.0 ('To Drown In You') 64bit 2017-07-31 23:45:01 / mkvmerge v10.0.0 ('To Drown In You') 64bit 2017-07-31 23:45:01 / UTC 2017-07-31T15:00:21Z
    FromStats_BitRate           : 1508999
    FromStats_Duration          : 01:38:57.291000000
    FromStats_FrameCount        : 556621
    FromStats_StreamSize        : 1119921452

    Text #1
    ID                          : 3
    Format                      : PGS
    Muxing mode                 : zlib
    Codec ID                    : S_HDMV/PGS
    Codec ID/Info               : Picture based subtitle format used on BDs/HD-DVDs
    Language                    : Spanish
    Default                     : No
    Forced                      : No
    Statistics Tags Issue       : mkvmerge v10.0.0 ('To Drown In You') 64bit 2017-07-31 23:45:01 / mkvmerge v10.0.0 ('To Drown In You') 64bit 2017-07-31 23:45:01 / UTC 2017-07-31T15:00:21Z
    FromStats_BitRate           : 148
    FromStats_Duration          : 00:37:54.917000000
    FromStats_FrameCount        : 20
    FromStats_StreamSize        : 42322

    Text #2
    ID                          : 4
    Format                      : PGS
    Muxing mode                 : zlib
    Codec ID                    : S_HDMV/PGS
    Codec ID/Info               : Picture based subtitle format used on BDs/HD-DVDs
    Language                    : Spanish
    Default                     : No
    Forced                      : No
    Statistics Tags Issue       : mkvmerge v10.0.0 ('To Drown In You') 64bit 2017-07-31 23:45:01 / mkvmerge v10.0.0 ('To Drown In You') 64bit 2017-07-31 23:45:01 / UTC 2017-07-31T15:00:21Z
    FromStats_BitRate           : 10834
    FromStats_Duration          : 01:33:40.709000000
    FromStats_FrameCount        : 3004
    FromStats_StreamSize        : 7612278

    Menu
    00:00:00.000                : :Chapter 1
    00:11:32.833                : :Chapter 2
    00:22:03.417                : :Chapter 3
    00:37:11.292                : :Chapter 4
    00:48:07.292                : :Chapter 5
    00:59:50.500                : :Chapter 6
    01:13:08.667                : :Chapter 7
    01:25:06.375                : :Chapter 8

  • Peso: 3.45 GB

Sinopsis

Descarga El Sr. Henri comparte piso hd , es una pelicula Francesa.Por culpa de su inestable estado de salud, el señor Henri no puede seguir viviendo solo en su apartamento parisino. A pesar de ser un hombre bastante gruñón acaba aceptando la proposición de su hijo de que alquile una habitación a una joven estudiante. Pero lejos de caer bajo el encanto de la joven, Henri la utilizará para crear un verdadero caos familiar.

Ficha técnica

Video trailer de la película

Enlaces de descarga

Descargar El Sr. Henri comparte piso (2015) Full 1080p Castellano
Descargar

dpeliculas

Aportes de DPeliculasHDmega la pass es:dpeliculashdmega.org Aportes de CinemaniaHD la pass es:cinemaniahdd.com

Películas relacionadas

  • Vikingos Temporada 5 (2017) WEB-DL Amazon 1080p Latino

    2017
    Vikingos Temporada 5 (2017) WEB-DL Amazon 1080p Latino

    0.0 0h 44m 2017

    Sigue las aventuras de Ragnar Lothbrok, el héroe más grande de su época. La serie narra las sagas...

    Director: Michael Hirst

    Género: Action & Adventure

    Actores: Moe Dunford

  • La LEGO Ninjago pelicula (2017) Full 1080p Latino

    2017
    La LEGO Ninjago pelicula (2017) Full 1080p Latino

    0.0 1h 40m 2017

    Una tierra lejana amenazada por la oscuridad. En este lugar llamado Ninjago, las fuerzas del bien y del...

    Director: Paul Fisher

    Género: Acción

    Actores: Zach Woods

  • La jugada maestra (2015) 1080p Latino

    2015
    La jugada maestra (2015) 1080p Latino

    0.0 1h 54m 2015

    "Pawn Sacrifice" (El sacrificio del peón) narra la historia de la preparación y del legendario enfrentamiento...

    Director: Edward Zwick

    Género: Drama

    Actores: Zach Fraser

  • El libro de la selva (2016) Full 1080p Latino

    2016
    El libro de la selva (2016) Full 1080p Latino

    5.0 1h 45m 2016

    Después de ser abandonado en la selva, una familia de lobos cría al pequeño cachorro humano Mowgli....

    Director: Jon Favreau

    Género: Aventura

    Actores: Sean W. Johnson

  • El Regalo Prometido (1996) Full 1080p Latino

    1996
    El Regalo Prometido (1996) Full 1080p Latino

    0.0 1 h 29 min 1996

    Howard Langston es un atareado hombre de negocios que llega tarde a la clase de karate de su hijo Jamie....

    Director: Brian Levant

    Género: Comedia

    Actores: Sinbad

Comentarios 0