Advertise here

Election (1999) Full 1080p Latino

747 vistas
1 estrella2 estrellas3 estrellas4 estrellas5 estrellas (Ninguna valoración todavía)
Cargando…

Información de Election (1999) Full 1080p Latino

Datos de la película

  • Calidad: Full 1080p
  • Audio: Español Latino AC3 5.1 BLURAY - Ingles AC3 5.1 BLURAY
  • Subtitulos: Español Latino PGS - Ingles PGS
  • Resolución: 1920x1080p
  • Formato: MKV
  • Codec: H.264
  • Encoder: Dpelis
  • Mediainfo: Clic para Mostrar Datos Ver
  • Election (1999) Full 1080p Latino.mkv
    Format                      : Matroska
    Format version              : Version 4 / Version 2
    File size                   : 8.61 GiB
    Duration                    : 1 h 42 min
    Overall bit rate            : 12.0 Mb/s
    Movie name                  : DPeliculasHDMega.ORG
    Encoded date                : UTC 2017-09-25 14:29:51 / UTC 2017-09-25T00:39:51Z
    Writing application         : mkvmerge v10.0.0 ('To Drown In You') 64bit
    Writing library             : libebml v1.3.4 + libmatroska v1.4.5 / Lavf57.7.2

    Video
    ID                          : 1
    Format                      : AVC
    Format/Info                 : Advanced Video Codec
    Format profile              : High@L4.1
    Format settings, CABAC      : Yes
    Format settings, RefFrames  : 4 frames
    Codec ID                    : V_MPEG4/ISO/AVC
    Duration                    : 1 h 42 min
    Bit rate                    : 10.4 Mb/s
    Width                       : 1 920 pixels
    Height                      : 1 080 pixels
    Display aspect ratio        : 16:9
    Frame rate mode             : Constant
    Frame rate                  : 23.976 (24000/1001) FPS
    Color space                 : YUV
    Chroma subsampling          : 4:2:0
    Bit depth                   : 8 bits
    Scan type                   : Progressive
    Bits/(Pixel*Frame)          : 0.210
    Stream size                 : 7.51 GiB (87%)
    Writing library             : x264 core 148 r2708 86b7198
    Encoding settings           : cabac=1 / ref=4 / deblock=1:0:0 / analyse=0x3:0x133 / me=esa / subme=10 / psy=1 / psy_rd=1.00:0.00 / mixed_ref=1 / me_range=24 / chroma_me=1 / trellis=2 / 8x8dct=1 / cqm=0 / deadzone=21,11 / fast_pskip=1 / chroma_qp_offset=-2 / threads=12 / lookahead_threads=2 / sliced_threads=0 / nr=0 / decimate=1 / interlaced=0 / bluray_compat=0 / constrained_intra=0 / bframes=8 / b_pyramid=2 / b_adapt=2 / b_bias=0 / direct=3 / weightb=1 / open_gop=0 / weightp=2 / keyint=240 / keyint_min=24 / scenecut=40 / intra_refresh=0 / rc_lookahead=60 / rc=crf / mbtree=1 / crf=20.0 / qcomp=0.60 / qpmin=0 / qpmax=69 / qpstep=4 / vbv_maxrate=62500 / vbv_bufsize=78125 / crf_max=0.0 / nal_hrd=none / filler=0 / ip_ratio=1.40 / aq=1:1.00
    Default                     : Yes
    Forced                      : No
    Color range                 : Limited
    Color primaries             : BT.709
    Transfer characteristics    : BT.709
    Matrix coefficients         : BT.709
    Statistics Tags Issue       : mkvmerge v10.0.0 ('To Drown In You') 64bit 2017-09-25 14:29:51 / mkvmerge v10.0.0 ('To Drown In You') 64bit 2017-09-25 14:29:51 / UTC 2017-09-25T00:39:51Z
    FromStats_BitRate           : 10659806
    FromStats_Duration          : 01:42:57.088000000
    FromStats_FrameCount        : 148102
    FromStats_StreamSize        : 8230820301

    Audio #1
    ID                          : 2
    Format                      : AC-3
    Format/Info                 : Audio Coding 3
    Format settings, Endianness : Big
    Codec ID                    : A_AC3
    Duration                    : 1 h 42 min
    Bit rate mode               : Constant
    Bit rate                    : 640 kb/s
    Channel(s)                  : 5 channels
    Channel positions           : Front: L C R, Side: L R
    Sampling rate               : 48.0 kHz
    Frame rate                  : 31.250 FPS (1536 SPF)
    Bit depth                   : 16 bits
    Compression mode            : Lossy
    Stream size                 : 471 MiB (5%)
    Title                       : Surround
    Language                    : Spanish
    Service kind                : Complete Main
    Default                     : Yes
    Forced                      : No
    Statistics Tags Issue       : mkvmerge v10.0.0 ('To Drown In You') 64bit 2017-09-25 14:29:51 / mkvmerge v10.0.0 ('To Drown In You') 64bit 2017-09-25 14:29:51 / UTC 2017-09-25T00:39:51Z
    FromStats_BitRate           : 640000
    FromStats_Duration          : 01:42:57.152000000
    FromStats_FrameCount        : 193036
    FromStats_StreamSize        : 494172160

    Audio #2
    ID                          : 3
    Format                      : AC-3
    Format/Info                 : Audio Coding 3
    Format settings, Endianness : Big
    Codec ID                    : A_AC3
    Duration                    : 1 h 42 min
    Bit rate mode               : Constant
    Bit rate                    : 640 kb/s
    Channel(s)                  : 5 channels
    Channel positions           : Front: L C R, Side: L R
    Sampling rate               : 48.0 kHz
    Frame rate                  : 31.250 FPS (1536 SPF)
    Bit depth                   : 16 bits
    Compression mode            : Lossy
    Stream size                 : 471 MiB (5%)
    Title                       : Surround
    Language                    : English
    Service kind                : Complete Main
    Default                     : No
    Forced                      : No
    Statistics Tags Issue       : mkvmerge v10.0.0 ('To Drown In You') 64bit 2017-09-25 14:29:51 / mkvmerge v10.0.0 ('To Drown In You') 64bit 2017-09-25 14:29:51 / UTC 2017-09-25T00:39:51Z
    FromStats_BitRate           : 640000
    FromStats_Duration          : 01:42:57.152000000
    FromStats_FrameCount        : 193036
    FromStats_StreamSize        : 494172160

    Text #1
    ID                          : 4
    Format                      : PGS
    Muxing mode                 : zlib
    Codec ID                    : S_HDMV/PGS
    Codec ID/Info               : Picture based subtitle format used on BDs/HD-DVDs
    Language                    : Spanish
    Default                     : No
    Forced                      : No
    Statistics Tags Issue       : mkvmerge v10.0.0 ('To Drown In You') 64bit 2017-09-25 14:29:51 / mkvmerge v10.0.0 ('To Drown In You') 64bit 2017-09-25 14:29:51 / UTC 2017-09-25T00:39:51Z
    FromStats_BitRate           : 13187
    FromStats_Duration          : 01:38:04.920000000
    FromStats_FrameCount        : 2431
    FromStats_StreamSize        : 9700637

    Text #2
    ID                          : 5
    Format                      : PGS
    Muxing mode                 : zlib
    Codec ID                    : S_HDMV/PGS
    Codec ID/Info               : Picture based subtitle format used on BDs/HD-DVDs
    Language                    : English
    Default                     : No
    Forced                      : No
    Statistics Tags Issue       : mkvmerge v10.0.0 ('To Drown In You') 64bit 2017-09-25 14:29:51 / mkvmerge v10.0.0 ('To Drown In You') 64bit 2017-09-25 14:29:51 / UTC 2017-09-25T00:39:51Z
    FromStats_BitRate           : 14284
    FromStats_Duration          : 01:35:11.080000000
    FromStats_FrameCount        : 2339
    FromStats_StreamSize        : 10197416

    Text #3
    ID                          : 6
    Format                      : UTF-8
    Codec ID                    : S_TEXT/UTF8
    Codec ID/Info               : UTF-8 Plain Text
    Language                    : Spanish
    Default                     : No
    Forced                      : No
    Statistics Tags Issue       : mkvmerge v10.0.0 ('To Drown In You') 64bit 2017-09-25 14:29:51 / mkvmerge v10.0.0 ('To Drown In You') 64bit 2017-09-25 14:29:51 / UTC 2017-09-25T00:39:51Z
    FromStats_BitRate           : 71
    FromStats_Duration          : 01:38:04.920000000
    FromStats_FrameCount        : 1214
    FromStats_StreamSize        : 52380

    Menu
    00:00:00.042                : :Chapter 1
    00:07:08.553                : :Chapter 2
    00:14:36.918                : :Chapter 3
    00:19:15.946                : :Chapter 4
    00:25:51.842                : :Chapter 5
    00:32:07.717                : :Chapter 6
    00:36:17.634                : :Chapter 7
    00:45:19.467                : :Chapter 8
    00:49:25.129                : :Chapter 9
    00:53:09.395                : :Chapter 10
    00:59:43.330                : :Chapter 11
    01:03:29.639                : :Chapter 12
    01:08:35.278                : :Chapter 13
    01:16:34.840                : :Chapter 14
    01:26:09.456                : :Chapter 15
    01:30:47.484                : :Chapter 16
    01:34:21.698                : :Chapter 17
    01:39:13.281                : :Chapter 18

  • Peso: 8.61 GB

Sinopsis

Por motivos que ni él mismo entiende, el profesor de un instituto estadounidense decide impedir que su mejor estudiante consiga el anhelado cargo de delegada de los alumnos. Una comedia aparentemente simple, pero que pronto se revela como una compleja y mordaz moraleja sobre la ambición, la corrupción y el deseo en sus niveles más descarnados y mezquinos. Cada escena es una mezcla de humor y amargura que dejan al espectador a medio camino entre la sorpresa y la empatía. No es extraño, pues, que recibiera una candidatura al Óscar al mejor guion original del 2000.

SOLO AUDIO INGLES TRUEHD

Ficha técnica

Video trailer de la película

Enlaces de descarga

Descargar Election (1999) Full 1080p Latino
Descargar

dpeliculas

Aportes de DPeliculasHDmega la pass es:dpeliculashdmega.org Aportes de CinemaniaHD la pass es:cinemaniahdd.com
Guardado en : Comedia , FULL 1080p Pesadas

Películas relacionadas

  • La hora del cambio (2017) 1080p Latino

    2017
    La hora del cambio (2017) 1080p Latino

    0.0 1 h 32 min 2017

    Los vecinos del pequeño pueblo siciliano de Pietrammare viven acostumbrados al caos que conlleva “saltarse...

    Director: Valentino Picone

    Género: Comedia

    Actores: Vincenzo Ferrera

  • Vikingos Temporada 5 (2017) WEB-DL Amazon 1080p Latino

    2017
    Vikingos Temporada 5 (2017) WEB-DL Amazon 1080p Latino

    0.0 0h 44m 2017

    Sigue las aventuras de Ragnar Lothbrok, el héroe más grande de su época. La serie narra las sagas...

    Director: Michael Hirst

    Género: Action & Adventure

    Actores: Moe Dunford

  • La LEGO Ninjago pelicula (2017) Full 1080p Latino

    2017
    La LEGO Ninjago pelicula (2017) Full 1080p Latino

    4.0 1h 40m 2017

    Una tierra lejana amenazada por la oscuridad. En este lugar llamado Ninjago, las fuerzas del bien y del...

    Director: Paul Fisher

    Género: Acción

    Actores: Zach Woods

  • El libro de la selva (2016) Full 1080p Latino

    2016
    El libro de la selva (2016) Full 1080p Latino

    5.0 1h 45m 2016

    Después de ser abandonado en la selva, una familia de lobos cría al pequeño cachorro humano Mowgli....

    Director: Jon Favreau

    Género: Aventura

    Actores: Sean W. Johnson

Comentarios 1
  • Alex - 21 noviembre, 2017

    Gracias por la pelicula, es excelente opcion el que hayas elegido google drive para las descargas. Ya que asi descargo a toda la velocidad de mi internet. Se agradece