Advertise here

Ghost in the Shell: El alma de la máquina (2017) 720p Latino

2.153 vistas
1 estrella2 estrellas3 estrellas4 estrellas5 estrellas (Ninguna valoración todavía)
Cargando…

Información de Ghost in the Shell: El alma de la máquina (2017) 720p Latino

Datos de la película

  • Calidad: WEBDL
  • Audio: Español Latino AC3 5.1 DVD - Ingles AC3 5.1 BLURAY
  • Subtitulos: Español Latino SRT - Ingles SRT
  • Resolución: 1280x720
  • Formato: MKV
  • Codec: H.264
  • Encoder: Dpelis
  • Mediainfo: Clic para Mostrar Datos Ver
  • Ghost In The Shell (720p) Latino.mkv
    Format                      : Matroska
    Format version              : Version 4 / Version 2
    File size                   : 1.84 GiB
    Duration                    : 1 h 47 min
    Overall bit rate            : 2 453 kb/s
    Encoded date                : UTC 2017-07-06 03:21:49 / UTC 2017-07-06T02:37:06Z
    Writing application         : mkvmerge v10.0.0 ('To Drown In You') 64bit
    Writing library             : libebml v1.3.4 + libmatroska v1.4.5 / Lavf57.7.2

    Video
    ID                          : 1
    Format                      : AVC
    Format/Info                 : Advanced Video Codec
    Format profile              : High@L4.1
    Format settings, CABAC      : Yes
    Format settings, ReFrames   : 4 frames
    Codec ID                    : V_MPEG4/ISO/AVC
    Duration                    : 1 h 47 min
    Bit rate                    : 1 700 kb/s
    Width                       : 1 280 pixels
    Height                      : 720 pixels
    Display aspect ratio        : 16:9
    Frame rate mode             : Constant
    Frame rate                  : 23.976 (24000/1001) FPS
    Color space                 : YUV
    Chroma subsampling          : 4:2:0
    Bit depth                   : 8 bits
    Scan type                   : Progressive
    Bits/(Pixel*Frame)          : 0.077
    Stream size                 : 1.23 GiB (67%)
    Writing library             : x264 core 148 r2708 86b7198
    Encoding settings           : cabac=1 / ref=3 / deblock=1:0:0 / analyse=0x3:0x113 / me=hex / subme=7 / psy=1 / psy_rd=1.00:0.00 / mixed_ref=1 / me_range=16 / chroma_me=1 / trellis=1 / 8x8dct=1 / cqm=0 / deadzone=21,11 / fast_pskip=1 / chroma_qp_offset=-2 / threads=12 / lookahead_threads=2 / sliced_threads=0 / nr=0 / decimate=1 / interlaced=0 / bluray_compat=0 / constrained_intra=0 / bframes=3 / b_pyramid=2 / b_adapt=1 / b_bias=0 / direct=1 / weightb=1 / open_gop=0 / weightp=2 / keyint=240 / keyint_min=24 / scenecut=40 / intra_refresh=0 / rc_lookahead=40 / rc=abr / mbtree=1 / bitrate=1700 / ratetol=1.0 / qcomp=0.60 / qpmin=0 / qpmax=69 / qpstep=4 / vbv_maxrate=62500 / vbv_bufsize=78125 / nal_hrd=none / filler=0 / ip_ratio=1.40 / aq=1:1.00
    Default                     : Yes
    Forced                      : No
    Color range                 : Limited
    Color primaries             : BT.709
    Transfer characteristics    : BT.709
    Matrix coefficients         : BT.709
    Statistics Tags Issue       : mkvmerge v10.0.0 ('To Drown In You') 64bit 2017-07-06 03:21:49 / mkvmerge v10.0.0 ('To Drown In You') 64bit 2017-07-06 03:21:49 / UTC 2017-07-06T02:37:06Z
    FromStats_BitRate           : 1685094
    FromStats_Duration          : 01:47:12.426000000
    FromStats_FrameCount        : 154224
    FromStats_StreamSize        : 1354905620

    Audio #1
    ID                          : 2
    Format                      : AC-3
    Format/Info                 : Audio Coding 3
    Format settings, Endianness : Big
    Codec ID                    : A_AC3
    Duration                    : 1 h 47 min
    Bit rate mode               : Constant
    Bit rate                    : 384 kb/s
    Channel(s)                  : 6 channels
    Channel positions           : Front: L C R, Side: L R, LFE
    Sampling rate               : 48.0 kHz
    Frame rate                  : 31.250 FPS (1536 spf)
    Bit depth                   : 16 bits
    Compression mode            : Lossy
    Stream size                 : 294 MiB (16%)
    Title                       : Surround
    Language                    : Spanish
    Service kind                : Complete Main
    Default                     : Yes
    Forced                      : No
    Statistics Tags Issue       : mkvmerge v10.0.0 ('To Drown In You') 64bit 2017-07-06 03:21:49 / mkvmerge v10.0.0 ('To Drown In You') 64bit 2017-07-06 03:21:49 / UTC 2017-07-06T02:37:06Z
    FromStats_BitRate           : 384000
    FromStats_Duration          : 01:46:55.552000000
    FromStats_FrameCount        : 200486
    FromStats_StreamSize        : 307946496

    Audio #2
    ID                          : 3
    Format                      : AC-3
    Format/Info                 : Audio Coding 3
    Format settings, Endianness : Big
    Codec ID                    : A_AC3
    Duration                    : 1 h 47 min
    Bit rate mode               : Constant
    Bit rate                    : 384 kb/s
    Channel(s)                  : 6 channels
    Channel positions           : Front: L C R, Side: L R, LFE
    Sampling rate               : 48.0 kHz
    Frame rate                  : 31.250 FPS (1536 spf)
    Bit depth                   : 16 bits
    Compression mode            : Lossy
    Stream size                 : 294 MiB (16%)
    Title                       : Surround
    Language                    : English
    Service kind                : Complete Main
    Default                     : No
    Forced                      : No
    Statistics Tags Issue       : mkvmerge v10.0.0 ('To Drown In You') 64bit 2017-07-06 03:21:49 / mkvmerge v10.0.0 ('To Drown In You') 64bit 2017-07-06 03:21:49 / UTC 2017-07-06T02:37:06Z
    FromStats_BitRate           : 384000
    FromStats_Duration          : 01:46:55.552000000
    FromStats_FrameCount        : 200486
    FromStats_StreamSize        : 307946496

    Text #1
    ID                          : 4
    Format                      : UTF-8
    Codec ID                    : S_TEXT/UTF8
    Codec ID/Info               : UTF-8 Plain Text
    Language                    : Spanish
    Default                     : Yes
    Forced                      : No
    Statistics Tags Issue       : mkvmerge v10.0.0 ('To Drown In You') 64bit 2017-07-06 03:21:49 / mkvmerge v10.0.0 ('To Drown In You') 64bit 2017-07-06 03:21:49 / UTC 2017-07-06T02:37:06Z
    FromStats_BitRate           : 36
    FromStats_Duration          : 01:44:50.290000000
    FromStats_FrameCount        : 906
    FromStats_StreamSize        : 28755

    Text #2
    ID                          : 5
    Format                      : UTF-8
    Codec ID                    : S_TEXT/UTF8
    Codec ID/Info               : UTF-8 Plain Text
    Title                       : FORZADOS
    Language                    : Spanish
    Default                     : No
    Forced                      : No
    Statistics Tags Issue       : mkvmerge v10.0.0 ('To Drown In You') 64bit 2017-07-06 03:21:49 / mkvmerge v10.0.0 ('To Drown In You') 64bit 2017-07-06 03:21:49 / UTC 2017-07-06T02:37:06Z
    FromStats_BitRate           : 2
    FromStats_Duration          : 01:44:50.332000000
    FromStats_FrameCount        : 73
    FromStats_StreamSize        : 2339

    Menu
    00:00:00.000                : :1
    00:08:08.029                : :2
    00:14:38.002                : :3
    00:21:24.033                : :4
    00:28:00.053                : :5
    00:34:10.006                : :6
    00:39:24.070                : :7
    00:43:54.006                : :8
    00:51:45.019                : :9
    00:55:13.018                : :10
    01:01:02.033                : :11
    01:07:43.017                : :12
    01:14:31.008                : :13
    01:20:26.071                : :14
    01:27:40.005                : :15
    01:33:34.067                : :16
    01:37:53.034                : :17

  • Peso: 1.84 GB

Sinopsis

Ghost in the Shell: El alma de la máquina 720p Latino. En un japón futurista la joven Motoko Kusanagi (Scarlett Johansson), también conocida como ‘the Major’ Mira Killian, es la líder de grupo operativo de élite, Sección 9, cuyo objetivo es luchar contra el ciberterrorismo y los crímenes tecnológicos. Al mando de esta unidad de operaciones encubiertas está Aramaki (Takeshi Kitano), y destaca Batou (Pilou Asbæk), un exmilitar considerado como uno de los agentes más salvajes del grupo. Pero, después de un peligrosa misión, el cuerpo de Kusanagi queda dañado, siendo sometida a una operación quirúrgica para trasplantar su cerebro en un cuerpo robótico. Este nuevo cuerpo artificial le permitirá ser capaz de realizar hazañas sobrehumanas especialmente requeridas para su trabajo… Basada en la aclamada saga homónima de ciencia ficción.

Ficha técnica

Video trailer de la película

Enlaces de descarga

Descargar Ghost in the Shell: El alma de la máquina (2017) 720p Latino
Descargar

dpeliculas

Aportes de DPeliculasHDmega la pass es:dpeliculashdmega.org Aportes de CinemaniaHD la pass es:cinemaniahdd.com

Películas relacionadas

  • Vikingos Temporada 5 (2017) WEB-DL Amazon 1080p Latino

    2017
    Vikingos Temporada 5 (2017) WEB-DL Amazon 1080p Latino

    0.0 0h 44m 2017

    Sigue las aventuras de Ragnar Lothbrok, el héroe más grande de su época. La serie narra las sagas...

    Director: Michael Hirst

    Género: Action & Adventure

    Actores: Moe Dunford

  • La LEGO Ninjago pelicula (2017) Full 1080p Latino

    2017
    La LEGO Ninjago pelicula (2017) Full 1080p Latino

    0.0 1h 40m 2017

    Una tierra lejana amenazada por la oscuridad. En este lugar llamado Ninjago, las fuerzas del bien y del...

    Director: Paul Fisher

    Género: Acción

    Actores: Zach Woods

  • La jugada maestra (2015) 1080p Latino

    2015
    La jugada maestra (2015) 1080p Latino

    0.0 1h 54m 2015

    "Pawn Sacrifice" (El sacrificio del peón) narra la historia de la preparación y del legendario enfrentamiento...

    Director: Edward Zwick

    Género: Drama

    Actores: Zach Fraser

  • El libro de la selva (2016) Full 1080p Latino

    2016
    El libro de la selva (2016) Full 1080p Latino

    5.0 1h 45m 2016

    Después de ser abandonado en la selva, una familia de lobos cría al pequeño cachorro humano Mowgli....

    Director: Jon Favreau

    Género: Aventura

    Actores: Sean W. Johnson

  • Diario De Una Pasión (2004) Full 1080p Latino

    2004
    Diario De Una Pasión (2004) Full 1080p Latino

    0.0 2 h 3 min 2004

    En una residencia de ancianos, un hombre mayor (James Garner) lee a una mujer (Gena Rowlands) una historia...

    Director: Nick Cassavetes

    Género: Drama

    Actores: Traci Dinwiddie

Comentarios 5
  • Javier Machicao - 16 octubre, 2017

    baje la pelicula por mega pero ninguna de las contraseñas me deja descomprimir me puede ayudar porfavor

    • dpelis

      Administrador
      - 16 octubre, 2017

      me alegra que pudo extraer,

  • javier - 16 octubre, 2017

    ninguna de las dos pass funciona

  • Leonel Saballos - 06 julio, 2017

    No funciona descargar por google … dice que ya se ha descargado muchas veces.