Advertise here

Mi villano favorito (2017) 1080p Latino

10.889 vistas
1 estrella2 estrellas3 estrellas4 estrellas5 estrellas (4 votos, promedio: 3,00 de 5)
Cargando…

Información de Mi villano favorito (2017) 1080p Latino

Datos de la película

  • Calidad: 1080p
  • Audio: Español Latino AC3 5.1 DVD - Ingles AC3 5.1 BLURAY
  • Subtitulos: Español Latino SRT
  • Resolución: 1920x800p
  • Formato: MKV
  • Codec: H.264
  • Encoder: Dpelis
  • Mediainfo: Clic para Mostrar Datos Ver
  • Despicable Me 3 (2017) 1080p Latino.mkv
    Format                      : Matroska
    Format version              : Version 4 / Version 2
    File size                   : 2.32 GiB
    Duration                    : 1 h 29 min
    Overall bit rate            : 3 697 kb/s
    Movie name                  : DPeliculasHDMega.ORG
    Encoded date                : UTC 2017-10-01 15:57:09 / UTC 2017-09-19T14:34:11Z
    Writing application         : mkvmerge v10.0.0 ('To Drown In You') 64bit
    Writing library             : libebml v1.3.4 + libmatroska v1.4.5 / Lavf57.7.2

    Video
    ID                          : 1
    Format                      : AVC
    Format/Info                 : Advanced Video Codec
    Format profile              : High@L4.1
    Format settings, CABAC      : Yes
    Format settings, RefFrames  : 5 frames
    Codec ID                    : V_MPEG4/ISO/AVC
    Duration                    : 1 h 29 min
    Bit rate                    : 2 855 kb/s
    Nominal bit rate            : 3 000 kb/s
    Width                       : 1 920 pixels
    Height                      : 804 pixels
    Display aspect ratio        : 2.40:1
    Frame rate mode             : Constant
    Frame rate                  : 23.976 (24000/1001) FPS
    Color space                 : YUV
    Chroma subsampling          : 4:2:0
    Bit depth                   : 8 bits
    Scan type                   : Progressive
    Bits/(Pixel*Frame)          : 0.077
    Stream size                 : 1.79 GiB (77%)
    Writing library             : x264 core 148 r2708 86b7198
    Encoding settings           : cabac=1 / ref=5 / deblock=1:0:0 / analyse=0x3:0x113 / me=umh / subme=8 / psy=1 / psy_rd=1.00:0.00 / mixed_ref=1 / me_range=16 / chroma_me=1 / trellis=1 / 8x8dct=1 / cqm=0 / deadzone=21,11 / fast_pskip=1 / chroma_qp_offset=-2 / threads=12 / lookahead_threads=2 / sliced_threads=0 / nr=0 / decimate=1 / interlaced=0 / bluray_compat=0 / constrained_intra=0 / bframes=3 / b_pyramid=2 / b_adapt=2 / b_bias=0 / direct=3 / weightb=1 / open_gop=0 / weightp=2 / keyint=240 / keyint_min=24 / scenecut=40 / intra_refresh=0 / rc_lookahead=50 / rc=abr / mbtree=1 / bitrate=3000 / ratetol=1.0 / qcomp=0.60 / qpmin=0 / qpmax=69 / qpstep=4 / vbv_maxrate=62500 / vbv_bufsize=78125 / nal_hrd=none / filler=0 / ip_ratio=1.40 / aq=1:1.00
    Default                     : Yes
    Forced                      : No
    Color range                 : Limited
    Color primaries             : BT.709
    Transfer characteristics    : BT.709
    Matrix coefficients         : BT.709
    Statistics Tags Issue       : mkvmerge v10.0.0 ('To Drown In You') 64bit 2017-10-01 15:57:09 / mkvmerge v10.0.0 ('To Drown In You') 64bit 2017-10-01 15:57:09 / UTC 2017-09-19T14:34:11Z
    FromStats_BitRate           : 2927242
    FromStats_Duration          : 01:29:40.417000000
    FromStats_FrameCount        : 129001
    FromStats_StreamSize        : 1968723168

    Audio #1
    ID                          : 2
    Format                      : AC-3
    Format/Info                 : Audio Coding 3
    Format settings, Endianness : Big
    Codec ID                    : A_AC3
    Duration                    : 1 h 29 min
    Bit rate mode               : Constant
    Bit rate                    : 384 kb/s
    Channel(s)                  : 6 channels
    Channel positions           : Front: L C R, Side: L R, LFE
    Sampling rate               : 48.0 kHz
    Frame rate                  : 31.250 FPS (1536 SPF)
    Bit depth                   : 16 bits
    Compression mode            : Lossy
    Delay relative to video     : -5 ms
    Stream size                 : 246 MiB (10%)
    Language                    : Spanish
    Service kind                : Complete Main
    Default                     : Yes
    Forced                      : No
    Statistics Tags Issue       : mkvmerge v10.0.0 ('To Drown In You') 64bit 2017-10-01 15:57:09 / mkvmerge v10.0.0 ('To Drown In You') 64bit 2017-10-01 15:57:09 / UTC 2017-09-19T14:34:11Z
    FromStats_BitRate           : 384000
    FromStats_Duration          : 01:29:41.216000000
    FromStats_FrameCount        : 168163
    FromStats_StreamSize        : 258298368

    Audio #2
    ID                          : 3
    Format                      : AC-3
    Format/Info                 : Audio Coding 3
    Format settings, Endianness : Big
    Codec ID                    : A_AC3
    Duration                    : 1 h 29 min
    Bit rate mode               : Constant
    Bit rate                    : 384 kb/s
    Channel(s)                  : 6 channels
    Channel positions           : Front: L C R, Side: L R, LFE
    Sampling rate               : 48.0 kHz
    Frame rate                  : 31.250 FPS (1536 SPF)
    Bit depth                   : 16 bits
    Compression mode            : Lossy
    Delay relative to video     : -5 ms
    Stream size                 : 246 MiB (10%)
    Title                       : Surround
    Language                    : English
    Service kind                : Complete Main
    Default                     : No
    Forced                      : No
    Statistics Tags Issue       : mkvmerge v10.0.0 ('To Drown In You') 64bit 2017-10-01 15:57:09 / mkvmerge v10.0.0 ('To Drown In You') 64bit 2017-10-01 15:57:09 / UTC 2017-09-19T14:34:11Z
    FromStats_BitRate           : 384000
    FromStats_Duration          : 01:29:40.416000000
    FromStats_FrameCount        : 168138
    FromStats_StreamSize        : 258259968

    Text
    ID                          : 4
    Format                      : UTF-8
    Codec ID                    : S_TEXT/UTF8
    Codec ID/Info               : UTF-8 Plain Text
    Default                     : Yes
    Forced                      : No
    Statistics Tags Issue       : mkvmerge v10.0.0 ('To Drown In You') 64bit 2017-10-01 15:57:09 / mkvmerge v10.0.0 ('To Drown In You') 64bit 2017-10-01 15:57:09 / UTC 2017-09-19T14:34:11Z
    FromStats_BitRate           : 58
    FromStats_Duration          : 01:22:24.528000000
    FromStats_FrameCount        : 1203
    FromStats_StreamSize        : 36349

    Menu
    00:00:00.000                : :00:00:00.000
    00:03:06.103                : :00:03:06.103
    00:07:58.061                : :00:07:57.977
    00:11:12.839                : :00:11:12.839
    00:16:15.766                : :00:16:15.766
    00:20:07.498                : :00:20:07.498
    00:24:07.988                : :00:24:07.988
    00:28:57.069                : :00:28:57.069
    00:32:55.348                : :00:32:55.348
    00:39:01.923                : :00:39:01.839
    00:42:44.187                : :00:42:44.187
    00:46:47.179                : :00:46:47.179
    00:50:55.636                : :00:50:55.636
    00:56:12.077                : :00:56:12.077
    01:00:02.265                : :01:00:02.265
    01:05:41.229                : :01:05:41.229
    01:10:14.544                : :01:10:14.544
    01:14:33.761                : :01:14:33.761
    01:19:29.723                : :01:19:29.723
    01:21:56.995                : :01:21:56.995

  • Peso: 2.32 GB

Sinopsis

A Gru lo han despedido. Se ha quedado sin trabajo porque ha dejado escapar al supervillano Balthazar Bratt. Bratt fue una estrella infantil de los años 80 protagonista de una serie donde interpretaba a una joven mente criminal que utilizaba una combinación entre técnicas de baile pop, artes marciales y juguetes de alta tecnología. Pero, con la llegada de la pubertad lo perdió todo y ha estado creando el caos en todo el planeta.

Claro que ahora, Gru se enfrenta a otros problemas. Y es que va a conocer a su hermano gemelo Dru, un multimillonario igualito que él, pero con pelo largo y rubio que viste de blanco. Dru es excéntrico y extrovertido y Gru, aunque con sentido del humor, sigue siendo un cascarrabias. Además, ahora Gru tendrá que decidir si está listo para continuar la tradición familiar de dedicarse al crimen, y unirse a su hermano para llevar a cabo un último golpe. Aunque ha dejado esa vida atrás… ¿volverá a convertirse Gru en un villano?

Nueva película de la saga de animación que comenzó en 2010 con Gru. Mi villano favorito y continuó tres años después con Gru. Mi villano favorito 2. Pierre Coffin vuelve a dirigir esta tercera entrega, esta vez acompañado de Kyle Balda, responsable de Los Minions (2015), y de Eric Guillon, diseñador de personajes

Ficha técnica

Video trailer de la película

Enlaces de descarga

Descargar Mi villano favorito (2017) 1080p Latino
Descargar

dpeliculas

Aportes de DPeliculasHDmega la pass es:dpeliculashdmega.org Aportes de CinemaniaHD la pass es:cinemaniahdd.com
Guardado en : Acción , Animación , Aventura , Comedia , Familia

Películas relacionadas

  • Me gusta, pero me asusta (2017) WEBDL Latino

    2017
    Me gusta, pero me asusta (2017) WEBDL Latino

    0.0 1h 40m 2017

    Dicen que todos los mexicanos somos iguales, pero eso… está por verse. Brayan Rodríguez (Alejandro...

    Director: Beto Gómez

    Género: Comedia

    Actores: Tere Salinas

  • La montaña entre nosotros (2017) 1080p Latino

    2017
    La montaña entre nosotros (2017) 1080p Latino

    0.0 1h 43m 2017

    Adaptación de la novela de Charles Martin. La historia sigue a dos personas distintas, Ashley es una...

    Director: Tim Macarthur

    Género: Aventura

    Actores: Waleed Zuaiter

  • Star Trek: En la oscuridad (2013) Full 1080p Latino

    2013
    Star Trek: En la oscuridad (2013) Full 1080p Latino

    5.0 2 h 12 min 2013

    Cuando a la tripulación de la nave Enterprise le ordenan que regrese a casa, en la Tierra se enfrentan...

    Director: Vanessa Meier

    Género: Acción

    Actores: Zoe Saldana

  • Arrow (2017) Temporada 6 WEBDL 1080p Latino

    2012
    Arrow (2017) Temporada 6 WEBDL 1080p Latino

    2.3 0h 42m 2012

    Con el futuro del equipo pendiendo de un hilo, Arrow le dio una nueva definición a la frase “explotar...

    Director: Marc Guggenheim

    Género: Acción

    Actores: Willa Holland

Comentarios 7
  • Mr Friend - 01 octubre, 2017

    ESTIMADOS CINEMANIAHD: Muchas gracias por la peli. Una sugerencia: borren los comentarios de la versión anterior, para que no haya confusión. Se habla de audio line, pero ESTA VERSIÓN YA CUENTA CON EL AUDIO 5.1 LATINO. Muchas gracias por compartir!!

    • dpelis

      Administrador
      - 01 octubre, 2017

      Muchas, gracias, tomado en cuenta.

    • oscar - 02 octubre, 2017

      la clave no da

      • dpelis

        Administrador
        - 03 octubre, 2017

        la clave de funcionar si o si

  • juan - 09 septiembre, 2017

    hey

  • francisco - 04 septiembre, 2017

    hola amigo una consulta como cuando van a subir mi villano favorito 3 en caratula plateada??