Advertise here

Guardianes de la galaxia Vol. 2 (2017) 3D IMAX OU Full Latino

1.735 vistas
1 estrella2 estrellas3 estrellas4 estrellas5 estrellas (Ninguna valoración todavía)
Cargando…

Información de Guardianes de la galaxia Vol. 2 (2017) 3D IMAX OU Full Latino

Datos de la película

  • Calidad: Full 1080p
  • Audio: Español Latino AC3 5.1 BLURAY - Ingles DTS 5.1 BLURAY
  • Subtitulos: Español Latino PGS - Ingles PGS
  • Resolución: 1920x1080p
  • Formato: MKV
  • Codec: H.264
  • Encoder: Dpelis
  • Mediainfo: Clic para Mostrar Datos Ver
  • Guardianes de la galaxia Vol. 2 (2017) 3D IMAX OU Full Latino.mkv
    Format                      : Matroska
    Format version              : Version 4 / Version 2
    File size                   : 6.09 GiB
    Duration                    : 2 h 15 min
    Overall bit rate            : 6 419 kb/s
    Movie name                  : DPeliculasHDMega.ORG
    Encoded date                : UTC 2017-08-23 21:18:19 / UTC 2017-08-23T18:39:37Z
    Writing application         : mkvmerge v10.0.0 ('To Drown In You') 64bit
    Writing library             : libebml v1.3.4 + libmatroska v1.4.5 / Lavf57.7.2

    Video
    ID                          : 1
    Format                      : AVC
    Format/Info                 : Advanced Video Codec
    Format profile              : High@L4.1
    Format settings, CABAC      : Yes
    Format settings, ReFrames   : 4 frames
    Codec ID                    : V_MPEG4/ISO/AVC
    Duration                    : 2 h 15 min
    Bit rate                    : 4 142 kb/s
    Width                       : 1 920 pixels
    Height                      : 1 080 pixels
    Display aspect ratio        : 16:9
    Frame rate mode             : Constant
    Frame rate                  : 23.976 (24000/1001) FPS
    Color space                 : YUV
    Chroma subsampling          : 4:2:0
    Bit depth                   : 8 bits
    Scan type                   : Progressive
    Bits/(Pixel*Frame)          : 0.083
    Stream size                 : 3.93 GiB (65%)
    Writing library             : x264 core 148 r2708 86b7198
    Encoding settings           : cabac=1 / ref=4 / deblock=1:0:0 / analyse=0x3:0x133 / me=esa / subme=10 / psy=1 / psy_rd=1.00:0.00 / mixed_ref=1 / me_range=24 / chroma_me=1 / trellis=2 / 8x8dct=1 / cqm=0 / deadzone=21,11 / fast_pskip=1 / chroma_qp_offset=-2 / threads=34 / lookahead_threads=5 / sliced_threads=0 / nr=0 / decimate=1 / interlaced=0 / bluray_compat=0 / constrained_intra=0 / bframes=8 / b_pyramid=2 / b_adapt=2 / b_bias=0 / direct=3 / weightb=1 / open_gop=0 / weightp=2 / keyint=240 / keyint_min=24 / scenecut=40 / intra_refresh=0 / rc_lookahead=60 / rc=crf / mbtree=1 / crf=20.0 / qcomp=0.60 / qpmin=0 / qpmax=69 / qpstep=4 / vbv_maxrate=62500 / vbv_bufsize=78125 / crf_max=0.0 / nal_hrd=none / filler=0 / ip_ratio=1.40 / aq=1:1.00
    Default                     : Yes
    Forced                      : No
    Color range                 : Limited
    Color primaries             : BT.709
    Transfer characteristics    : BT.709
    Matrix coefficients         : BT.709
    Statistics Tags Issue       : mkvmerge v10.0.0 ('To Drown In You') 64bit 2017-08-23 21:18:19 / mkvmerge v10.0.0 ('To Drown In You') 64bit 2017-08-23 21:18:19 / UTC 2017-08-23T18:39:37Z
    FromStats_BitRate           : 4251339
    FromStats_Duration          : 02:15:45.096000000
    FromStats_FrameCount        : 195287
    FromStats_StreamSize        : 4328445756

    Audio #1
    ID                          : 2
    Format                      : AC-3
    Format/Info                 : Audio Coding 3
    Format settings, Endianness : Big
    Codec ID                    : A_AC3
    Duration                    : 2 h 15 min
    Bit rate mode               : Constant
    Bit rate                    : 640 kb/s
    Channel(s)                  : 6 channels
    Channel positions           : Front: L C R, Side: L R, LFE
    Sampling rate               : 48.0 kHz
    Frame rate                  : 31.250 FPS (1536 spf)
    Bit depth                   : 16 bits
    Compression mode            : Lossy
    Stream size                 : 622 MiB (10%)
    Language                    : Spanish
    Service kind                : Complete Main
    Default                     : Yes
    Forced                      : No
    Statistics Tags Issue       : mkvmerge v10.0.0 ('To Drown In You') 64bit 2017-08-23 21:18:19 / mkvmerge v10.0.0 ('To Drown In You') 64bit 2017-08-23 21:18:19 / UTC 2017-08-23T18:39:37Z
    FromStats_BitRate           : 640000
    FromStats_Duration          : 02:15:46.208000000
    FromStats_FrameCount        : 254569
    FromStats_StreamSize        : 651696640

    Audio #2
    ID                          : 3
    Format                      : DTS
    Format/Info                 : Digital Theater Systems
    Mode                        : 16
    Format settings, Endianness : Big
    Codec ID                    : A_DTS
    Duration                    : 2 h 15 min
    Bit rate mode               : Constant
    Bit rate                    : 1 509 kb/s
    Channel(s)                  : 6 channels
    Channel positions           : Front: L C R, Side: L R, LFE
    Sampling rate               : 48.0 kHz
    Frame rate                  : 93.750 FPS (512 spf)
    Bit depth                   : 24 bits
    Compression mode            : Lossy
    Stream size                 : 1.43 GiB (24%)
    Title                       : Surround
    Language                    : English
    Default                     : No
    Forced                      : No
    Statistics Tags Issue       : mkvmerge v10.0.0 ('To Drown In You') 64bit 2017-08-23 21:18:19 / mkvmerge v10.0.0 ('To Drown In You') 64bit 2017-08-23 21:18:19 / UTC 2017-08-23T18:39:37Z
    FromStats_BitRate           : 1508999
    FromStats_Duration          : 02:15:45.174000000
    FromStats_FrameCount        : 763610
    FromStats_StreamSize        : 1536383320

    Text #1
    ID                          : 4
    Format                      : PGS
    Muxing mode                 : zlib
    Codec ID                    : S_HDMV/PGS
    Codec ID/Info               : Picture based subtitle format used on BDs/HD-DVDs
    Language                    : English
    Default                     : No
    Forced                      : No
    Statistics Tags Issue       : mkvmerge v10.0.0 ('To Drown In You') 64bit 2017-08-23 21:18:19 / mkvmerge v10.0.0 ('To Drown In You') 64bit 2017-08-23 21:18:19 / UTC 2017-08-23T18:39:37Z
    FromStats_BitRate           : 7707
    FromStats_Duration          : 02:14:26.683000000
    FromStats_FrameCount        : 3024
    FromStats_StreamSize        : 7772190

    Text #2
    ID                          : 5
    Format                      : PGS
    Muxing mode                 : zlib
    Codec ID                    : S_HDMV/PGS
    Codec ID/Info               : Picture based subtitle format used on BDs/HD-DVDs
    Language                    : Spanish
    Default                     : Yes
    Forced                      : No
    Statistics Tags Issue       : mkvmerge v10.0.0 ('To Drown In You') 64bit 2017-08-23 21:18:19 / mkvmerge v10.0.0 ('To Drown In You') 64bit 2017-08-23 21:18:19 / UTC 2017-08-23T18:39:37Z
    FromStats_BitRate           : 9088
    FromStats_Duration          : 02:14:46.787000000
    FromStats_FrameCount        : 3208
    FromStats_StreamSize        : 9186692

    Text #3
    ID                          : 6
    Format                      : PGS
    Muxing mode                 : zlib
    Codec ID                    : S_HDMV/PGS
    Codec ID/Info               : Picture based subtitle format used on BDs/HD-DVDs
    Language                    : Spanish
    Default                     : No
    Forced                      : No
    Statistics Tags Issue       : mkvmerge v10.0.0 ('To Drown In You') 64bit 2017-08-23 21:18:19 / mkvmerge v10.0.0 ('To Drown In You') 64bit 2017-08-23 21:18:19 / UTC 2017-08-23T18:39:37Z
    FromStats_BitRate           : 215
    FromStats_Duration          : 02:06:34.837000000
    FromStats_FrameCount        : 58
    FromStats_StreamSize        : 204214

    Menu
    00:00:00.000                : :(01)00:00:00:000
    00:09:56.179                : :(02)00:09:56:178
    00:15:10.118                : :(03)00:15:10:117
    00:22:14.124                : :(04)00:22:14:082
    00:32:33.743                : :(05)00:32:33:701
    00:36:52.168                : :(06)00:36:52:126
    00:42:29.172                : :(07)00:42:29:171
    00:48:03.506                : :(08)00:48:03:463
    00:53:18.904                : :(09)00:53:18:904
    00:58:45.939                : :(10)00:58:45:939
    01:05:52.240                : :(11)01:05:52:239
    01:11:12.435                : :(12)01:11:12:434
    01:18:43.636                : :(13)01:18:43:593
    01:23:55.364                : :(14)01:23:55:321
    01:30:24.753                : :(15)01:30:24:752
    01:39:36.179                : :(16)01:39:36:178
    01:47:06.211                : :(17)01:47:06:211
    01:54:21.605                : :(18)01:54:21:604
    01:58:53.752                : :(19)01:58:53:709
    02:07:13.459                : :(20)02:07:13:459

  • Peso: 6.09 GB

Sinopsis

Awesome Mix Vol. 2 es el nuevo telón de fondo sonoro de “Guardianes de la Galaxia Vol. 2” de Marvel que narra las aventuras del equipo mientras atraviesan los confines del cosmos. Los Guardianes deben luchar para mantener unida a su nueva familia mientras desentrañan el misterio de la verdadera filiación de Peter Quill. Los viejos enemigos se convierten en nuevos aliados y los personajes favoritos de los fans provenientes de los cómics clásicos acudirán en ayuda de nuestros héroes mientras el Universo Cinematográfico Marvel sigue expandiéndose.

Ficha técnica

Video trailer de la película

Enlaces de descarga

Descargar Guardianes de la galaxia Vol. 2 (2017) 3D IMAX OU Full Latino
Descargar

dpeliculas

Aportes de DPeliculasHDmega la pass es:dpeliculashdmega.org Aportes de CinemaniaHD la pass es:cinemaniahdd.com

Películas relacionadas

  • Me gusta, pero me asusta (2017) WEBDL Latino

    2017
    Me gusta, pero me asusta (2017) WEBDL Latino

    0.0 1h 40m 2017

    Dicen que todos los mexicanos somos iguales, pero eso… está por verse. Brayan Rodríguez (Alejandro...

    Director: Beto Gómez

    Género: Comedia

    Actores: Tere Salinas

  • La montaña entre nosotros (2017) 1080p Latino

    2017
    La montaña entre nosotros (2017) 1080p Latino

    0.0 1h 43m 2017

    Adaptación de la novela de Charles Martin. La historia sigue a dos personas distintas, Ashley es una...

    Director: Tim Macarthur

    Género: Aventura

    Actores: Waleed Zuaiter

  • El francotirador (1978) Full 1080p Latino

    1978
    El francotirador (1978) Full 1080p Latino

    0.0 3h 2m 1978

    Descargar Pelicula El francotirador 1978 hd latino Unos amigos de un pequeño pueblo industrial acuden...

    Director: Michael Cimino

    Género: Drama

    Actores: Vitoon Winwitoon

  • Star Trek: En la oscuridad (2013) Full 1080p Latino

    2013
    Star Trek: En la oscuridad (2013) Full 1080p Latino

    5.0 2 h 12 min 2013

    Cuando a la tripulación de la nave Enterprise le ordenan que regrese a casa, en la Tierra se enfrentan...

    Director: Vanessa Meier

    Género: Acción

    Actores: Zoe Saldana

Comentarios 9
  • Miguel7xdwe - 25 septiembre, 2017

    añadi los enlaces de mega en jdownloader, me reconoce los enlaces pero al mandar a descargar me sale directorio de descarga invalido, ayudaaaaa

  • ithanlevin - 09 septiembre, 2017

    no reproduce con vlc

    • dpelis

      Administrador
      - 13 septiembre, 2017

      deberia estimado. intente con medi player classic

  • mirko - 04 septiembre, 2017

    no reconoce los subtitulos forzados

    • dpelis

      Administrador
      - 04 septiembre, 2017

      en la tv? si es asi es porq son pgs

  • Dario - 25 agosto, 2017

    Lo huelo desde aqui que Ud son amantes del 3D, Todos sus aportes estan perfectos y en OU.

  • logan - 24 agosto, 2017

    cuando la subieran en 4k hdr ????

    • dpelis

      Administrador
      - 24 agosto, 2017

      cuando este el BD full