Advertise here

Halloween, el origen (2007) Theatrical Cut 1080p Full Latino

1.623 vistas
1 estrella2 estrellas3 estrellas4 estrellas5 estrellas (Ninguna valoración todavía)
Cargando…

Información de Halloween, el origen (2007) Theatrical Cut 1080p Full Latino

Datos de la película

  • Calidad: Full 1080p
  • Audio: Se especifica abajo de la Sinopsis
  • Subtitulos: No
  • Resolución: 1920x1080p
  • Formato: MKV
  • Codec: H.264
  • Encoder: Dpelis1
  • Mediainfo: Clic para Mostrar Datos Ver
  • Video
    ID                                       : 1
    Format                                   : AVC
    Format/Info                              : Advanced Video Codec
    Format profile                           : High@L4.1
    Format settings, CABAC                   : Yes
    Format settings, RefFrames               : 4 frames
    Codec ID                                 : V_MPEG4/ISO/AVC
    Duration                                 : 1 h 50 min
    Bit rate                                 : 3 498 kb/s
    Width                                    : 1 920 pixels
    Height                                   : 1 080 pixels
    Display aspect ratio                     : 16:9
    Frame rate mode                          : Constant
    Frame rate                               : 23.976 (24000/1001) FPS
    Color space                              : YUV
    Chroma subsampling                       : 4:2:0
    Bit depth                                : 8 bits
    Scan type                                : Progressive
    Bits/(Pixel*Frame)                       : 0.070
    Stream size                              : 2.69 GiB (66%)
    Writing library                          : x264 core 148 r2708 86b7198
    Encoding settings                        : cabac=1 / ref=4 / deblock=1:0:0 / analyse=0x3:0x133 / me=esa / subme=10 / psy=1 / psy_rd=1.00:0.00 / mixed_ref=1 / me_range=24 / chroma_me=1 / trellis=2 / 8x8dct=1 / cqm=0 / deadzone=21,11 / fast_pskip=1 / chroma_qp_offset=-2 / threads=34 / lookahead_threads=5 / sliced_threads=0 / nr=0 / decimate=1 / interlaced=0 / bluray_compat=0 / constrained_intra=0 / bframes=8 / b_pyramid=2 / b_adapt=2 / b_bias=0 / direct=3 / weightb=1 / open_gop=0 / weightp=2 / keyint=240 / keyint_min=24 / scenecut=40 / intra_refresh=0 / rc_lookahead=60 / rc=crf / mbtree=1 / crf=20.0 / qcomp=0.60 / qpmin=0 / qpmax=69 / qpstep=4 / vbv_maxrate=62500 / vbv_bufsize=78125 / crf_max=0.0 / nal_hrd=none / filler=0 / ip_ratio=1.40 / aq=1:1.00
    Default                                  : Yes
    Forced                                   : No
    Color range                              : Limited
    Color primaries                          : BT.709
    Transfer characteristics                 : BT.709
    Matrix coefficients                      : BT.709
    Statistics Tags Issue                    : mkvmerge v10.0.0 ('To Drown In You') 64bit 2017-09-29 02:15:24 / mkvmerge v10.0.0 ('To Drown In You') 64bit 2017-09-29 02:15:24 / UTC 2017-09-27T17:21:13Z
    FromStats_BitRate                        : 3601585
    FromStats_Duration                       : 01:50:04.056000000
    FromStats_FrameCount                     : 158339
    FromStats_StreamSize                     : 2973133796

    Audio #1
    ID                                       : 2
    Format                                   : AC-3
    Format/Info                              : Audio Coding 3
    Format settings, Endianness              : Big
    Codec ID                                 : A_AC3
    Duration                                 : 1 h 50 min
    Bit rate mode                            : Constant
    Bit rate                                 : 192 kb/s
    Channel(s)                               : 2 channels
    Channel positions                        : Front: L R
    Sampling rate                            : 48.0 kHz
    Frame rate                               : 31.250 FPS (1536 SPF)
    Bit depth                                : 16 bits
    Compression mode                         : Lossy
    Stream size                              : 151 MiB (4%)
    Language                                 : Spanish
    Service kind                             : Complete Main
    Default                                  : Yes
    Forced                                   : No
    Statistics Tags Issue                    : mkvmerge v10.0.0 ('To Drown In You') 64bit 2017-09-29 02:15:24 / mkvmerge v10.0.0 ('To Drown In You') 64bit 2017-09-29 02:15:24 / UTC 2017-09-27T17:21:13Z
    FromStats_BitRate                        : 192000
    FromStats_Duration                       : 01:50:04.128000000
    FromStats_FrameCount                     : 206379
    FromStats_StreamSize                     : 158499072

    Audio #2
    ID                                       : 3
    Format                                   : DTS
    Format/Info                              : Digital Theater Systems
    Mode                                     : 16
    Format settings, Endianness              : Big
    Codec ID                                 : A_DTS
    Duration                                 : 1 h 50 min
    Bit rate mode                            : Constant
    Bit rate                                 : 1 509 kb/s
    Channel(s)                               : 6 channels
    Channel positions                        : Front: L C R, Side: L R, LFE
    Sampling rate                            : 48.0 kHz
    Frame rate                               : 93.750 FPS (512 SPF)
    Bit depth                                : 16 bits
    Compression mode                         : Lossy
    Stream size                              : 1.16 GiB (28%)
    Language                                 : English
    Default                                  : No
    Forced                                   : No
    Statistics Tags Issue                    : mkvmerge v10.0.0 ('To Drown In You') 64bit 2017-09-29 02:15:24 / mkvmerge v10.0.0 ('To Drown In You') 64bit 2017-09-29 02:15:24 / UTC 2017-09-27T17:21:13Z
    FromStats_BitRate                        : 1508999
    FromStats_Duration                       : 01:50:04.107000000
    FromStats_FrameCount                     : 619135
    FromStats_StreamSize                     : 1245699620

    Menu
    00:00:00.000                             : :Chapter 1
    00:00:37.788                             : :Chapter 2
    00:05:45.887                             : :Chapter 3
    00:11:16.759                             : :Chapter 4
    00:18:31.527                             : :Chapter 5
    00:23:54.767                             : :Chapter 6
    00:31:36.812                             : :Chapter 7
    00:35:42.098                             : :Chapter 8
    00:45:20.218                             : :Chapter 9
    00:53:55.816                             : :Chapter 10
    01:04:51.805                             : :Chapter 11
    01:12:58.416                             : :Chapter 12
    01:19:05.866                             : :Chapter 13
    01:23:37.513                             : :Chapter 14
    01:32:09.566                             : :Chapter 15
    01:43:51.267                             : :Chapter 16

  • Peso: 4,07 GB

Sinopsis

Descargar gratis Halloween, el origen (2007) Theatrical Cut 1080p Full Latino. Después de estar recluido durante 17 años en una institución mntal, Michael Myers, convertido ya en un hombre adulto y muy peligroso, logra escaparse y regresa a Haddonfield para buscar a su hermana. Todo aquel que se cruce en su camino corre un peligro mortal.

Nota: Audio Latino AC3 2.0 Exclusivo (capturado del TV) – Ingles DTS 5.1 (BLU-RAY)

Ficha técnica

  • Titulo original: Halloween
  • Fecha de lanzamiento: 31-08-2007 (United States of America)
  • Director: Rob Zombie
  • Género: Terror
  • Puntuación: 0.0 0 votos
  • Duración:
    1h 50m

Video trailer de la película

Enlaces de descarga

Descargar Halloween, el origen (2007) Theatrical Cut 1080p Full Latino
Descargar

dpeliculas

Aportes de DPeliculasHDmega la pass es:dpeliculashdmega.org Aportes de CinemaniaHD la pass es:cinemaniahdd.com
Guardado en : Terror

Películas relacionadas

  • Escalofrios (2015) Full 1080p Latino

    2015
    Escalofrios (2015) Full 1080p Latino

    4.0 1 h 43 min 2015

    El adolescente Zach Cooper se muda sin muchas ganas con su familia desde Nueva York al pequeño pueblo...

    Director: Rob Letterman

    Género: Aventura

    Actores: Vivian Kyle

  • Madre! (2017) Full 1080p Latino

    2017
    Madre! (2017) Full 1080p Latino

    5.0 2h 1m 2017

    La película gira en torno a una pareja cuya relación se pone a prueba cuando reciben la visita inesperada...

    Director: Sinan Saber

    Género: Drama

    Actores: Xiao Sun

  • No respires (2016) Full 1080p Latino

    2016
    No respires (2016) Full 1080p Latino

    5.0 1 h 28 min 2016

    Unos jóvenes ladrones creen haber encontrado la oportunidad de cometer el robo perfecto. Su objetivo...

    Director: Fede Alvarez

    Género: FULL 1080p Pesadas

    Actores: Stephen Lang

  • Madre! (2017) 1080p Latino

    2017
    Madre! (2017) 1080p Latino

    0.0 2h 1m 2017

    Una pareja se acaba de instalar en una gran y aislada mansión en el campo para que él, un poeta maduro...

    Director: Sinan Saber

    Género: Drama

    Actores: Xiao Sun

Comentarios 2
  • joaquin - 30 septiembre, 2017

    colo las claves i me sale que el archivo anda dañado sera que pueden darme una mano con ese problema

    • dpelis

      Administrador
      - 01 octubre, 2017

      estimado, la clabe es , dpeliculashdmega.org todo minuscula