Advertise here

Headshot (2016) 1080p Latino

1.860 vistas
1 estrella2 estrellas3 estrellas4 estrellas5 estrellas (Ninguna valoración todavía)
Cargando…

Información de Headshot (2016) 1080p Latino

Datos de la película

  • Calidad: 1080p
  • Audio: Español Latino AC3 5.1 iTUNES - Ingles AC3 5.1 BLURAY
  • Subtitulos: Español Latino SRT - Ingles SRT
  • Resolución: 1920x804p
  • Formato: MKV
  • Codec: H.264
  • Encoder: Dpelis
  • Mediainfo: Clic para Mostrar Datos Ver
  • Headshot.2016.1080p LATINO.mkv
    Format                      : Matroska
    Format version              : Version 4 / Version 2
    File size                   : 3.47 GiB
    Duration                    : 1 h 58 min
    Overall bit rate            : 4 193 kb/s
    Movie name                  : DPeliculasHDMega.ORG
    Encoded date                : UTC 2017-06-09 00:53:49 / UTC 2017-06-08T23:18:25Z
    Writing application         : mkvmerge v10.0.0 ('To Drown In You') 64bit
    Writing library             : libebml v1.3.4 + libmatroska v1.4.5 / Lavf57.7.2

    Video
    ID                          : 1
    Format                      : AVC
    Format/Info                 : Advanced Video Codec
    Format profile              : High@L4.1
    Format settings, CABAC      : Yes
    Format settings, ReFrames   : 4 frames
    Codec ID                    : V_MPEG4/ISO/AVC
    Duration                    : 1 h 58 min
    Bit rate                    : 3 500 kb/s
    Width                       : 1 920 pixels
    Height                      : 804 pixels
    Display aspect ratio        : 2.40:1
    Frame rate mode             : Constant
    Frame rate                  : 23.976 (24000/1001) FPS
    Color space                 : YUV
    Chroma subsampling          : 4:2:0
    Bit depth                   : 8 bits
    Scan type                   : Progressive
    Bits/(Pixel*Frame)          : 0.095
    Stream size                 : 2.77 GiB (80%)
    Writing library             : x264 core 148 r2708 86b7198
    Encoding settings           : cabac=1 / ref=3 / deblock=1:0:0 / analyse=0x3:0x113 / me=hex / subme=7 / psy=1 / psy_rd=1.00:0.00 / mixed_ref=1 / me_range=16 / chroma_me=1 / trellis=1 / 8x8dct=1 / cqm=0 / deadzone=21,11 / fast_pskip=1 / chroma_qp_offset=-2 / threads=12 / lookahead_threads=2 / sliced_threads=0 / nr=0 / decimate=1 / interlaced=0 / bluray_compat=0 / constrained_intra=0 / bframes=3 / b_pyramid=2 / b_adapt=1 / b_bias=0 / direct=1 / weightb=1 / open_gop=0 / weightp=2 / keyint=240 / keyint_min=24 / scenecut=40 / intra_refresh=0 / rc_lookahead=40 / rc=abr / mbtree=1 / bitrate=3500 / ratetol=1.0 / qcomp=0.60 / qpmin=0 / qpmax=69 / qpstep=4 / vbv_maxrate=62500 / vbv_bufsize=78125 / nal_hrd=none / filler=0 / ip_ratio=1.40 / aq=1:1.00
    Default                     : Yes
    Forced                      : No
    Color range                 : Limited
    Color primaries             : BT.709
    Transfer characteristics    : BT.709
    Matrix coefficients         : BT.709
    Statistics Tags Issue       : mkvmerge v10.0.0 ('To Drown In You') 64bit 2017-06-09 00:53:49 / mkvmerge v10.0.0 ('To Drown In You') 64bit 2017-06-09 00:53:49 / UTC 2017-06-08T23:18:25Z
    FromStats_BitRate           : 3433352
    FromStats_Duration          : 01:58:18.467000000
    FromStats_FrameCount        : 170193
    FromStats_StreamSize        : 3046442666

    Audio #1
    ID                          : 2
    Format                      : AC-3
    Format/Info                 : Audio Coding 3
    Format settings, Endianness : Big
    Codec ID                    : A_AC3
    Duration                    : 1 h 58 min
    Bit rate mode               : Constant
    Bit rate                    : 384 kb/s
    Channel(s)                  : 6 channels
    Channel positions           : Front: L C R, Side: L R, LFE
    Sampling rate               : 48.0 kHz
    Frame rate                  : 31.250 FPS (1536 spf)
    Bit depth                   : 16 bits
    Compression mode            : Lossy
    Delay relative to video     : 495 ms
    Stream size                 : 326 MiB (9%)
    Title                       : Surround
    Language                    : Spanish
    Service kind                : Complete Main
    Default                     : Yes
    Forced                      : No
    Statistics Tags Issue       : mkvmerge v10.0.0 ('To Drown In You') 64bit 2017-06-09 00:53:49 / mkvmerge v10.0.0 ('To Drown In You') 64bit 2017-06-09 00:53:49 / UTC 2017-06-08T23:18:25Z
    FromStats_BitRate           : 384000
    FromStats_Duration          : 01:58:38.016000000
    FromStats_FrameCount        : 222438
    FromStats_StreamSize        : 341664768

    Audio #2
    ID                          : 3
    Format                      : AC-3
    Format/Info                 : Audio Coding 3
    Format settings, Endianness : Big
    Codec ID                    : A_AC3
    Duration                    : 1 h 58 min
    Bit rate mode               : Constant
    Bit rate                    : 384 kb/s
    Channel(s)                  : 6 channels
    Channel positions           : Front: L C R, Side: L R, LFE
    Sampling rate               : 48.0 kHz
    Frame rate                  : 31.250 FPS (1536 spf)
    Bit depth                   : 16 bits
    Compression mode            : Lossy
    Delay relative to video     : -5 ms
    Stream size                 : 326 MiB (9%)
    Title                       : Surround
    Service kind                : Complete Main
    Default                     : No
    Forced                      : No
    Statistics Tags Issue       : mkvmerge v10.0.0 ('To Drown In You') 64bit 2017-06-09 00:53:49 / mkvmerge v10.0.0 ('To Drown In You') 64bit 2017-06-09 00:53:49 / UTC 2017-06-08T23:18:25Z
    FromStats_BitRate           : 384000
    FromStats_Duration          : 01:58:18.496000000
    FromStats_FrameCount        : 221828
    FromStats_StreamSize        : 340727808

    Text #1
    ID                          : 4
    Format                      : UTF-8
    Codec ID                    : S_TEXT/UTF8
    Codec ID/Info               : UTF-8 Plain Text
    Language                    : Spanish
    Default                     : Yes
    Forced                      : No
    Statistics Tags Issue       : mkvmerge v10.0.0 ('To Drown In You') 64bit 2017-06-09 00:53:49 / mkvmerge v10.0.0 ('To Drown In You') 64bit 2017-06-09 00:53:49 / UTC 2017-06-08T23:18:25Z
    FromStats_BitRate           : 15
    FromStats_Duration          : 01:53:11.209000000
    FromStats_FrameCount        : 515
    FromStats_StreamSize        : 12876

    Text #2
    ID                          : 5
    Format                      : UTF-8
    Codec ID                    : S_TEXT/UTF8
    Codec ID/Info               : UTF-8 Plain Text
    Language                    : English
    Default                     : No
    Forced                      : No
    Statistics Tags Issue       : mkvmerge v10.0.0 ('To Drown In You') 64bit 2017-06-09 00:53:49 / mkvmerge v10.0.0 ('To Drown In You') 64bit 2017-06-09 00:53:49 / UTC 2017-06-08T23:18:25Z
    FromStats_BitRate           : 14
    FromStats_Duration          : 01:53:20.825000000
    FromStats_FrameCount        : 510
    FromStats_StreamSize        : 12144

    Text #3
    ID                          : 6
    Format                      : UTF-8
    Codec ID                    : S_TEXT/UTF8
    Codec ID/Info               : UTF-8 Plain Text
    Title                       : FORZADOS
    Language                    : Spanish
    Default                     : No
    Forced                      : No
    Statistics Tags Issue       : mkvmerge v10.0.0 ('To Drown In You') 64bit 2017-06-09 00:53:49 / mkvmerge v10.0.0 ('To Drown In You') 64bit 2017-06-09 00:53:49 / UTC 2017-06-08T23:18:25Z
    FromStats_BitRate           : 0
    FromStats_Duration          : 01:49:40.289000000
    FromStats_FrameCount        : 9
    FromStats_StreamSize        : 152

    Menu
    00:00:00.000                : :Chapter 1
    00:08:30.760                : :Chapter 2
    00:17:55.157                : :Chapter 3
    00:30:08.974                : :Chapter 4
    00:44:42.096                : :Chapter 5
    00:53:31.625                : :Chapter 6
    01:02:09.601                : :Chapter 7
    01:13:48.507                : :Chapter 8
    01:20:57.519                : :Chapter 9
    01:34:25.368                : :Chapter 10
    01:43:55.271                : :Chapter 11
    01:54:38.955                : :Chapter 12
    01:58:18.174                : :Chapter 13

  • Peso: 3.47 GB

Sinopsis

Ishmael (Uwais) despierta en un hospital sin poder recordar nada de su vida tras un golpe en la cabeza. Ayudado por la doctora Ailin, irá recuperando su memoria, pero antes de finalizar el proceso, Ishmael se encontrará enfrentándose con unos luchadores que, quizás, puedan ser sus antiguos compañeros.

Kimo Stamboel y Timo Tjahjanto (Killers) dirigen este drama de acción que cuenta con un reparto formado por Iko Uwais (The Raid), Julie Estelle (Macabre) y Very Tri Yulisman (The Raid 2), entre otros.

Ficha técnica

Video trailer de la película

Enlaces de descarga

Descargar Headshot (2016) 1080p Latino
Descargar
Descargar Headshot (2016) 1080p Latino

dpeliculas

Aportes de DPeliculasHDmega la pass es:dpeliculashdmega.org Aportes de CinemaniaHD la pass es:cinemaniahdd.com
Guardado en : Acción , Comedia , Drama , Suspense

Películas relacionadas

  • Dulce venganza (2016) 1080p Latino

    2016
    Dulce venganza (2016) 1080p Latino

    2.0 1 h 34 min 2016

    Un asesino de élite llamado Frank, tras ser traicionado por unos gángsters, es enviado a una cirujana...

    Director: Walter Hill

    Género: Acción

    Actores: Zak Santiago

  • Línea mortal: Al límite (2017) 1080p Latino

    2017
    Línea mortal: Al límite (2017) 1080p Latino

    0.0 1 h 49 min 2017

    Un grupo de jóvenes estudiantes de medicina llevan a cabo un experimento que implica una muerte provocada...

    Director: Niels Arden Oplev

    Género: Ciencia ficción

    Actores: Wendy Raquel Robinson

  • La hora del cambio (2017) 1080p Latino

    2017
    La hora del cambio (2017) 1080p Latino

    0.0 1 h 32 min 2017

    Los vecinos del pequeño pueblo siciliano de Pietrammare viven acostumbrados al caos que conlleva “saltarse...

    Director: Valentino Picone

    Género: Comedia

    Actores: Vincenzo Ferrera

  • Un reino unido (2016) 1080p Latino

    2016
    Un reino unido (2016) 1080p Latino

    0.0 1 h 50 min 2016

    Biopic sobre el Príncipe Seretse Khama, el rey de Botsuana, que al contraer matrimonio en 1948 con Ruth...

    Director: Amma Asante

    Género: Drama

    Actores: Zackary Momoh

Comentarios 2
  • John Angulo - 11 junio, 2017

    Baje todo y me sale error cuando descomprimo… 🙁

    • dpelis

      Administrador
      - 12 junio, 2017

      Que parte? si esta usando winrar fre.. por favor descargar de google winrar ultima version full , reinstalar winrar, y volver extraer.