Advertise here

Home Sweet Home (2013) Full 1080p Subtitulada

672 vistas
1 estrella2 estrellas3 estrellas4 estrellas5 estrellas (Ninguna valoración todavía)
Cargando…

Información de Home Sweet Home (2013) Full 1080p Subtitulada

Datos de la película

  • Calidad: Full 1080p
  • Audio: Ingles DTS 5.1 BLURAY
  • Subtitulos: Español Latino SRT
  • Resolución: 1920X1080
  • Formato: MKV
  • Codec: H.264
  • Encoder: Dpelis
  • Mediainfo: Clic para Mostrar Datos Ver
  • Format                                   : Matroska
    Format version                           : Version 4 / Version 2
    File size                                : 1.99 GiB
    Duration                                 : 1 h 21 min
    Overall bit rate                         : 3 498 kb/s
    Movie name                               : dpeliculashdmega.org
    Encoded date                             : UTC 2017-12-03 03:12:49 / UTC 2017-11-17T13:23:08Z
    Writing application                      : mkvmerge v15.0.0 ('Duel with the Devil') 64-bit
    Writing library                          : libebml v1.3.5 + libmatroska v1.4.5 / Lavf57.7.2

    Video
    ID                                       : 1
    Format                                   : AVC
    Format/Info                              : Advanced Video Codec
    Format profile                           : High@L4.1
    Format settings                          : CABAC / 4 Ref Frames
    Format settings, CABAC                   : Yes
    Format settings, RefFrames               : 4 frames
    Codec ID                                 : V_MPEG4/ISO/AVC
    Duration                                 : 1 h 21 min
    Bit rate                                 : 1 919 kb/s
    Width                                    : 1 920 pixels
    Height                                   : 1 080 pixels
    Display aspect ratio                     : 16:9
    Frame rate mode                          : Constant
    Frame rate                               : 23.976 (24000/1001) FPS
    Color space                              : YUV
    Chroma subsampling                       : 4:2:0
    Bit depth                                : 8 bits
    Scan type                                : Progressive
    Bits/(Pixel*Frame)                       : 0.039
    Stream size                              : 1.09 GiB (55%)
    Title                                    : Home Sweet Home (2013) Full 1080p Subtitulada
    Writing library                          : x264 core 148 r2708 86b7198
    Encoding settings                        : cabac=1 / ref=4 / deblock=1:0:0 / analyse=0x3:0x133 / me=esa / subme=10 / psy=1 / psy_rd=1.00:0.00 / mixed_ref=1 / me_range=24 / chroma_me=1 / trellis=2 / 8x8dct=1 / cqm=0 / deadzone=21,11 / fast_pskip=1 / chroma_qp_offset=-2 / threads=34 / lookahead_threads=5 / sliced_threads=0 / nr=0 / decimate=1 / interlaced=0 / bluray_compat=0 / constrained_intra=0 / bframes=8 / b_pyramid=2 / b_adapt=2 / b_bias=0 / direct=3 / weightb=1 / open_gop=0 / weightp=2 / keyint=240 / keyint_min=24 / scenecut=40 / intra_refresh=0 / rc_lookahead=60 / rc=crf / mbtree=1 / crf=20.0 / qcomp=0.60 / qpmin=0 / qpmax=69 / qpstep=4 / vbv_maxrate=62500 / vbv_bufsize=78125 / crf_max=0.0 / nal_hrd=none / filler=0 / ip_ratio=1.40 / aq=1:1.00
    Language                                 : English
    Default                                  : Yes
    Forced                                   : No
    Color range                              : Limited
    Color primaries                          : BT.709
    Transfer characteristics                 : BT.709
    Matrix coefficients                      : BT.709
    Statistics Tags Issue                    : mkvmerge v15.0.0 ('Duel with the Devil') 64-bit 2017-12-03 03:12:49 / mkvmerge v15.0.0 ('Duel with the Devil') 64-bit 2017-12-03 03:12:49 / UTC 2017-11-17T13:23:08Z
    FromStats_BitRate                        : 1987303
    FromStats_Duration                       : 01:21:34.140000000
    FromStats_FrameCount                     : 117342
    FromStats_StreamSize                     : 1215767795

    Audio
    ID                                       : 2
    Format                                   : DTS
    Format/Info                              : Digital Theater Systems
    Mode                                     : 16
    Format settings, Endianness              : Big
    Codec ID                                 : A_DTS
    Duration                                 : 1 h 21 min
    Bit rate mode                            : Constant
    Bit rate                                 : 1 509 kb/s
    Channel(s)                               : 6 channels
    Channel positions                        : Front: L C R, Side: L R, LFE
    Sampling rate                            : 48.0 kHz
    Frame rate                               : 93.750 FPS (512 SPF)
    Bit depth                                : 24 bits
    Compression mode                         : Lossy
    Stream size                              : 880 MiB (43%)
    Title                                    : Ingles-DTS
    Language                                 : English
    Default                                  : Yes
    Forced                                   : Yes
    Statistics Tags Issue                    : mkvmerge v15.0.0 ('Duel with the Devil') 64-bit 2017-12-03 03:12:49 / mkvmerge v15.0.0 ('Duel with the Devil') 64-bit 2017-12-03 03:12:49 / UTC 2017-11-17T13:23:08Z
    FromStats_BitRate                        : 1508999
    FromStats_Duration                       : 01:21:30.934000000
    FromStats_FrameCount                     : 458525
    FromStats_StreamSize                     : 922552300

    Text
    ID                                       : 3
    Format                                   : UTF-8
    Codec ID                                 : S_TEXT/UTF8
    Codec ID/Info                            : UTF-8 Plain Text
    Language                                 : Spanish
    Default                                  : Yes
    Forced                                   : Yes
    Statistics Tags Issue                    : mkvmerge v15.0.0 ('Duel with the Devil') 64-bit 2017-12-03 03:12:49 / mkvmerge v15.0.0 ('Duel with the Devil') 64-bit 2017-12-03 03:12:49 / UTC 2017-11-17T13:23:08Z
    FromStats_BitRate                        : 21
    FromStats_Duration                       : 01:20:44.921000000
    FromStats_FrameCount                     : 413
    FromStats_StreamSize                     : 13063

    Menu
    00:00:00.000                             : :00:00:00.000
    00:08:00.522                             : :00:08:00.480
    00:16:01.043                             : :00:16:00.960
    00:24:01.440                             : :00:24:01.440
    00:32:01.920                             : :00:32:01.920
    00:40:02.400                             : :00:40:02.400
    00:48:02.880                             : :00:48:02.880
    00:56:03.360                             : :00:56:03.360
    01:04:03.840                             : :01:04:03.840
    01:12:04.403                             : :01:12:04.320

  • Peso: 1.99 GiB

Sinopsis

Una joven pareja casada vuelve a casa de una cita nocturna para descubrir que se encuentran atrapados en su propio hogar junto a un metódico asesino.

Ficha técnica

Video trailer de la película

Enlaces de descarga

Descargar Home Sweet Home (2013) Full 1080p Subtitulada
Descargar

dpeliculas

Aportes de DPeliculasHDmega la pass es:dpeliculashdmega.org Aportes de CinemaniaHD la pass es:cinemaniahdd.com

Películas relacionadas

  • Vikingos Temporada 5 (2017) WEB-DL Amazon 1080p Latino

    2017
    Vikingos Temporada 5 (2017) WEB-DL Amazon 1080p Latino

    0.0 0h 44m 2017

    Sigue las aventuras de Ragnar Lothbrok, el héroe más grande de su época. La serie narra las sagas...

    Director: Michael Hirst

    Género: Action & Adventure

    Actores: Moe Dunford

  • La LEGO Ninjago pelicula (2017) Full 1080p Latino

    2017
    La LEGO Ninjago pelicula (2017) Full 1080p Latino

    0.0 1h 40m 2017

    Una tierra lejana amenazada por la oscuridad. En este lugar llamado Ninjago, las fuerzas del bien y del...

    Director: Paul Fisher

    Género: Acción

    Actores: Zach Woods

  • La jugada maestra (2015) 1080p Latino

    2015
    La jugada maestra (2015) 1080p Latino

    0.0 1h 54m 2015

    "Pawn Sacrifice" (El sacrificio del peón) narra la historia de la preparación y del legendario enfrentamiento...

    Director: Edward Zwick

    Género: Drama

    Actores: Zach Fraser

  • El libro de la selva (2016) Full 1080p Latino

    2016
    El libro de la selva (2016) Full 1080p Latino

    5.0 1h 45m 2016

    Después de ser abandonado en la selva, una familia de lobos cría al pequeño cachorro humano Mowgli....

    Director: Jon Favreau

    Género: Aventura

    Actores: Sean W. Johnson

  • El Regalo Prometido (1996) Full 1080p Latino

    1996
    El Regalo Prometido (1996) Full 1080p Latino

    0.0 1 h 29 min 1996

    Howard Langston es un atareado hombre de negocios que llega tarde a la clase de karate de su hijo Jamie....

    Director: Brian Levant

    Género: Comedia

    Actores: Sinbad

Comentarios 4
  • erick - 03 diciembre, 2017

    cuando subiran la serie dark de netflix

    • dpelis

      Administrador
      - 04 diciembre, 2017

      en la noche

  • sebas - 03 diciembre, 2017

    esperando en latino =)

    • Dpelis2

      Autor
      - 04 diciembre, 2017

      Coreo que de esta película no existe el latino…