Advertise here

Independence Day (1996) EXTENDED Full 1080p Latino

629 vistas
1 estrella2 estrellas3 estrellas4 estrellas5 estrellas (Ninguna valoración todavía)
Cargando…

Información de Independence Day (1996) EXTENDED Full 1080p Latino

Datos de la película

  • Calidad: Full 1080p
  • Audio: Español Latino AC3 5.1 BLURAY - Ingles DTS 5.1 BLURAY
  • Subtitulos: Español Latino PGS - Ingles PGS
  • Resolución: 1920X1080
  • Formato: MKV
  • Codec: H.264
  • Encoder: Dracarys
  • Mediainfo: Clic para Mostrar Datos Ver
  • Format                                   : Matroska
    Format version                           : Version 4 / Version 2
    File size                                : 12.3 GiB
    Duration                                 : 2 h 33 min
    Overall bit rate                         : 11.5 Mb/s
    Movie name                               : cinemaniahdd.com
    Encoded date                             : UTC 2017-12-05 20:03:36 / UTC 2017-12-05T13:49:48Z
    Writing application                      : mkvmerge v15.0.0 ('Duel with the Devil') 64-bit
    Writing library                          : libebml v1.3.5 + libmatroska v1.4.5 / Lavf57.7.2

    Video
    ID                                       : 1
    Format                                   : AVC
    Format/Info                              : Advanced Video Codec
    Format profile                           : High@L4.1
    Format settings                          : CABAC / 4 Ref Frames
    Format settings, CABAC                   : Yes
    Format settings, RefFrames               : 4 frames
    Codec ID                                 : V_MPEG4/ISO/AVC
    Duration                                 : 2 h 33 min
    Bit rate                                 : 9 290 kb/s
    Width                                    : 1 920 pixels
    Height                                   : 1 080 pixels
    Display aspect ratio                     : 16:9
    Frame rate mode                          : Constant
    Frame rate                               : 23.976 (24000/1001) FPS
    Color space                              : YUV
    Chroma subsampling                       : 4:2:0
    Bit depth                                : 8 bits
    Scan type                                : Progressive
    Bits/(Pixel*Frame)                       : 0.187
    Stream size                              : 9.96 GiB (81%)
    Title                                    : Independence Day (1996) EXTENDED Full 1080p Latino
    Writing library                          : x264 core 148 r2708 86b7198
    Encoding settings                        : cabac=1 / ref=4 / deblock=1:0:0 / analyse=0x3:0x133 / me=esa / subme=10 / psy=1 / psy_rd=1.00:0.00 / mixed_ref=1 / me_range=24 / chroma_me=1 / trellis=2 / 8x8dct=1 / cqm=0 / deadzone=21,11 / fast_pskip=1 / chroma_qp_offset=-2 / threads=34 / lookahead_threads=5 / sliced_threads=0 / nr=0 / decimate=1 / interlaced=0 / bluray_compat=0 / constrained_intra=0 / bframes=8 / b_pyramid=2 / b_adapt=2 / b_bias=0 / direct=3 / weightb=1 / open_gop=0 / weightp=2 / keyint=240 / keyint_min=24 / scenecut=40 / intra_refresh=0 / rc_lookahead=60 / rc=crf / mbtree=1 / crf=20.0 / qcomp=0.60 / qpmin=0 / qpmax=69 / qpstep=4 / vbv_maxrate=62500 / vbv_bufsize=78125 / crf_max=0.0 / nal_hrd=none / filler=0 / ip_ratio=1.40 / aq=1:1.00
    Language                                 : English
    Default                                  : Yes
    Forced                                   : No
    Color range                              : Limited
    Color primaries                          : BT.709
    Transfer characteristics                 : BT.709
    Matrix coefficients                      : BT.709
    Statistics Tags Issue                    : mkvmerge v15.0.0 ('Duel with the Devil') 64-bit 2017-12-05 20:03:36 / mkvmerge v15.0.0 ('Duel with the Devil') 64-bit 2017-12-05 20:03:36 / UTC 2017-12-05T13:49:48Z
    FromStats_BitRate                        : 9487154
    FromStats_Duration                       : 02:33:33.455000000
    FromStats_FrameCount                     : 220902
    FromStats_StreamSize                     : 10926184282

    Audio #1
    ID                                       : 2
    Format                                   : AC-3
    Format/Info                              : Audio Coding 3
    Format settings, Endianness              : Big
    Codec ID                                 : A_AC3
    Duration                                 : 2 h 33 min
    Bit rate mode                            : Constant
    Bit rate                                 : 448 kb/s
    Channel(s)                               : 6 channels
    Channel positions                        : Front: L C R, Side: L R, LFE
    Sampling rate                            : 48.0 kHz
    Frame rate                               : 31.250 FPS (1536 SPF)
    Bit depth                                : 16 bits
    Compression mode                         : Lossy
    Stream size                              : 492 MiB (4%)
    Title                                    : AC3-BluRay
    Language                                 : Spanish
    Service kind                             : Complete Main
    Default                                  : Yes
    Forced                                   : No
    Statistics Tags Issue                    : mkvmerge v15.0.0 ('Duel with the Devil') 64-bit 2017-12-05 20:03:36 / mkvmerge v15.0.0 ('Duel with the Devil') 64-bit 2017-12-05 20:03:36 / UTC 2017-12-05T13:49:48Z
    FromStats_BitRate                        : 448000
    FromStats_Duration                       : 02:33:33.536000000
    FromStats_FrameCount                     : 287923
    FromStats_StreamSize                     : 515958016

    Audio #2
    ID                                       : 3
    Format                                   : DTS
    Format/Info                              : Digital Theater Systems
    Mode                                     : 16
    Format settings, Endianness              : Big
    Codec ID                                 : A_DTS
    Duration                                 : 2 h 33 min
    Bit rate mode                            : Constant
    Bit rate                                 : 1 509 kb/s
    Channel(s)                               : 6 channels
    Channel positions                        : Front: L C R, Side: L R, LFE
    Sampling rate                            : 48.0 kHz
    Frame rate                               : 93.750 FPS (512 SPF)
    Bit depth                                : 24 bits
    Compression mode                         : Lossy
    Stream size                              : 1.62 GiB (13%)
    Title                                    : DTS-BluRay
    Language                                 : English
    Default                                  : No
    Forced                                   : No
    Statistics Tags Issue                    : mkvmerge v15.0.0 ('Duel with the Devil') 64-bit 2017-12-05 20:03:36 / mkvmerge v15.0.0 ('Duel with the Devil') 64-bit 2017-12-05 20:03:36 / UTC 2017-12-05T13:49:48Z
    FromStats_BitRate                        : 1509000
    FromStats_Duration                       : 02:33:33.472000000
    FromStats_FrameCount                     : 863763
    FromStats_StreamSize                     : 1737891156

    Text #1
    ID                                       : 4
    Format                                   : PGS
    Muxing mode                              : zlib
    Codec ID                                 : S_HDMV/PGS
    Codec ID/Info                            : Picture based subtitle format used on BDs/HD-DVDs
    Language                                 : English
    Default                                  : No
    Forced                                   : No
    Statistics Tags Issue                    : mkvmerge v15.0.0 ('Duel with the Devil') 64-bit 2017-12-05 20:03:36 / mkvmerge v15.0.0 ('Duel with the Devil') 64-bit 2017-12-05 20:03:36 / UTC 2017-12-05T13:49:48Z
    FromStats_BitRate                        : 35165
    FromStats_Duration                       : 02:23:22.765000000
    FromStats_FrameCount                     : 3572
    FromStats_StreamSize                     : 37815524

    Text #2
    ID                                       : 5
    Format                                   : PGS
    Muxing mode                              : zlib
    Codec ID                                 : S_HDMV/PGS
    Codec ID/Info                            : Picture based subtitle format used on BDs/HD-DVDs
    Language                                 : Spanish
    Default                                  : No
    Forced                                   : No
    Statistics Tags Issue                    : mkvmerge v15.0.0 ('Duel with the Devil') 64-bit 2017-12-05 20:03:36 / mkvmerge v15.0.0 ('Duel with the Devil') 64-bit 2017-12-05 20:03:36 / UTC 2017-12-05T13:49:48Z
    FromStats_BitRate                        : 33286
    FromStats_Duration                       : 02:32:51.082000000
    FromStats_FrameCount                     : 3200
    FromStats_StreamSize                     : 38159541

    Menu
    00:00:00.000                             : :Chapter 1
    00:02:43.872                             : :Chapter 2
    00:05:01.468                             : :Chapter 3
    00:07:32.619                             : :Chapter 4
    00:08:01.940                             : :Chapter 5
    00:09:21.644                             : :Chapter 6
    00:10:29.921                             : :Chapter 7
    00:12:06.643                             : :Chapter 8
    00:14:08.556                             : :Chapter 9
    00:14:56.270                             : :Chapter 10
    00:18:57.053                             : :Chapter 11
    00:25:33.198                             : :Chapter 12
    00:27:23.809                             : :Chapter 13
    00:30:10.892                             : :Chapter 14
    00:32:18.186                             : :Chapter 15
    00:34:12.717                             : :Chapter 16
    00:36:39.072                             : :Chapter 17
    00:38:17.420                             : :Chapter 18
    00:40:05.153                             : :Chapter 19
    00:41:02.210                             : :Chapter 20
    00:41:33.491                             : :Chapter 21
    00:44:15.653                             : :Chapter 22
    00:44:37.967                             : :Chapter 23
    00:46:02.885                             : :Chapter 24
    00:48:48.092                             : :Chapter 25
    00:50:42.122                             : :Chapter 26
    00:54:22.760                             : :Chapter 27
    00:57:22.564                             : :Chapter 28
    00:58:05.232                             : :Chapter 29
    01:03:11.079                             : :Chapter 30
    01:04:30.241                             : :Chapter 31
    01:06:00.582                             : :Chapter 32
    01:06:53.051                             : :Chapter 33
    01:08:20.096                             : :Chapter 34
    01:11:22.111                             : :Chapter 35
    01:12:49.949                             : :Chapter 36
    01:14:38.224                             : :Chapter 37
    01:18:29.622                             : :Chapter 38
    01:21:19.291                             : :Chapter 39
    01:23:04.813                             : :Chapter 40
    01:25:59.863                             : :Chapter 41
    01:27:49.765                             : :Chapter 42
    01:35:25.345                             : :Chapter 43
    01:38:52.301                             : :Chapter 44
    01:39:55.656                             : :Chapter 45
    01:42:51.123                             : :Chapter 46
    01:49:33.358                             : :Chapter 47
    01:53:25.465                             : :Chapter 48
    01:55:00.852                             : :Chapter 49
    01:59:38.880                             : :Chapter 50
    02:04:03.144                             : :Chapter 51
    02:07:41.529                             : :Chapter 52
    02:10:50.801                             : :Chapter 53
    02:11:52.738                             : :Chapter 54
    02:17:21.483                             : :Chapter 55
    02:21:17.427                             : :Chapter 56
    02:24:48.263                             : :Chapter 57

  • Peso: 12.3 GiB

Sinopsis

En víspera del 4 de julio, unas gigantescas naves espaciales aparecen en el cielo. El estupor inicial se convierte en terror al ver cómo éstas atacan al planeta lanzando rayos destructivos en las mayores ciudades de todo el mundo. Ahora la única esperanza para la salvación de la tierra está en la voluntad de algunos supervivientes, que se unen planeando el último ataque masivo contra los alienígenas, antes de que sea demasiado tarde para la humanidad.

Ficha técnica

Video trailer de la película

Enlaces de descarga

Descargar Independence Day (1996) EXTENDED Full 1080p Latino
Descargar

dpeliculas

Aportes de DPeliculasHDmega la pass es:dpeliculashdmega.org Aportes de CinemaniaHD la pass es:cinemaniahdd.com

Películas relacionadas

  • Barry Seal: solo en América (2017) 1080p Latino

    2017
    Barry Seal: solo en América (2017) 1080p Latino

    0.0 1 h 54 min 2017

    Basada en la vida real de Barry Seal, un expiloto que se convirtió en un importante narcotraficante...

    Director: Nick DiRosa

    Género: Acción

    Actores: William Mark McCullough

  • Línea mortal: al límite (2017) Full 1080p Latino

    2017
    Línea mortal: al límite (2017) Full 1080p Latino

    0.0 1 h 49 min 2017

    Remake del clasico de los 90 Línea mortal (Flatliners). Un grupo de jóvenes estudiantes de medicina...

    Director: Niels Arden Oplev

    Género: Ciencia ficción

    Actores: Wendy Raquel Robinson

  • La montaña entre nosotros (2017) Full 1080p Latino

    2017
    La montaña entre nosotros (2017) Full 1080p Latino

    5.0 1 h 51 min 2017

    Abandonados a su suerte después de un trágico accidente aéreo, Ben Bass (Idris Elba) y Alex Martin...

    Director: Tim Macarthur

    Género: Aventura

    Actores: Waleed Zuaiter

  • La montaña entre nosotros (2017) 1080p Latino

    2017
    La montaña entre nosotros (2017) 1080p Latino

    4.0 1h 43m 2017

    Adaptación de la novela de Charles Martin. La historia sigue a dos personas distintas, Ashley es una...

    Director: Tim Macarthur

    Género: Aventura

    Actores: Waleed Zuaiter

Comentarios 2
  • Aldo Popoca - 07 diciembre, 2017

    Gracias por la peli queda aclarar que la contraseña es la de cinemaniahdd.com

  • piero - 05 diciembre, 2017

    muchas gracias por subir esta pelicula se agradece …saludos