Advertise here

It – Eso (1990) UNRATED 1080p Latino

4.469 vistas
1 estrella2 estrellas3 estrellas4 estrellas5 estrellas (4 votos, promedio: 4,75 de 5)
Cargando…

Información de It – Eso (1990) UNRATED 1080p Latino

Datos de la película

  • Calidad: 1080p
  • Audio: Español Latino AC3 2.0 Capturado - Ingles AC3 5.1 BLURAY
  • Subtitulos: Español Latino SRT - Ingles SRT
  • Resolución: 1920x1080p
  • Formato: MKV
  • Codec: H.264
  • Encoder: Dpelis
  • Mediainfo: Clic para Mostrar Datos Ver
  • Stephen King's It (1990) UNRATED WEBDl 1080p Latino.mkv
    Format                      : Matroska
    Format version              : Version 4 / Version 2
    File size                   : 5.16 GiB
    Duration                    : 3 h 7 min
    Overall bit rate            : 3 939 kb/s
    Movie name                  : DPeliculasHDMega.ORG
    Encoded date                : UTC 2017-08-23 19:08:00 / UTC 2017-08-09T14:12:16Z
    Writing application         : mkvmerge v10.0.0 ('To Drown In You') 64bit
    Writing library             : libebml v1.3.4 + libmatroska v1.4.5 / Lavf57.7.2

    Video
    ID                          : 1
    Format                      : AVC
    Format/Info                 : Advanced Video Codec
    Format profile              : High@L4.1
    Format settings, CABAC      : Yes
    Format settings, ReFrames   : 5 frames
    Codec ID                    : V_MPEG4/ISO/AVC
    Duration                    : 3 h 7 min
    Bit rate                    : 3 500 kb/s
    Width                       : 1 436 pixels
    Height                      : 1 076 pixels
    Display aspect ratio        : 4:3
    Frame rate mode             : Constant
    Frame rate                  : 23.976 (24000/1001) FPS
    Color space                 : YUV
    Chroma subsampling          : 4:2:0
    Bit depth                   : 8 bits
    Scan type                   : Progressive
    Bits/(Pixel*Frame)          : 0.094
    Stream size                 : 4.47 GiB (87%)
    Writing library             : x264 core 148 r2708 86b7198
    Encoding settings           : cabac=1 / ref=5 / deblock=1:0:0 / analyse=0x3:0x113 / me=umh / subme=8 / psy=1 / psy_rd=1.00:0.00 / mixed_ref=1 / me_range=16 / chroma_me=1 / trellis=1 / 8x8dct=1 / cqm=0 / deadzone=21,11 / fast_pskip=1 / chroma_qp_offset=-2 / threads=12 / lookahead_threads=2 / sliced_threads=0 / nr=0 / decimate=1 / interlaced=0 / bluray_compat=0 / constrained_intra=0 / bframes=3 / b_pyramid=2 / b_adapt=2 / b_bias=0 / direct=3 / weightb=1 / open_gop=0 / weightp=2 / keyint=240 / keyint_min=24 / scenecut=40 / intra_refresh=0 / rc_lookahead=50 / rc=abr / mbtree=1 / bitrate=3500 / ratetol=1.0 / qcomp=0.60 / qpmin=0 / qpmax=69 / qpstep=4 / vbv_maxrate=62500 / vbv_bufsize=78125 / nal_hrd=none / filler=0 / ip_ratio=1.40 / aq=1:1.00
    Default                     : Yes
    Forced                      : No
    Color range                 : Limited
    Color primaries             : BT.709
    Transfer characteristics    : BT.709
    Matrix coefficients         : BT.709
    Statistics Tags Issue       : mkvmerge v10.0.0 ('To Drown In You') 64bit 2017-08-23 19:08:00 / mkvmerge v10.0.0 ('To Drown In You') 64bit 2017-08-23 19:08:00 / UTC 2017-08-09T14:12:16Z
    FromStats_BitRate           : 3488499
    FromStats_Duration          : 03:07:22.440000000
    FromStats_FrameCount        : 269549
    FromStats_StreamSize        : 4902405456

    Audio #1
    ID                          : 2
    Format                      : AC-3
    Format/Info                 : Audio Coding 3
    Format settings, Endianness : Big
    Codec ID                    : A_AC3
    Duration                    : 3 h 7 min
    Bit rate mode               : Constant
    Bit rate                    : 192 kb/s
    Channel(s)                  : 2 channels
    Channel positions           : Front: L R
    Sampling rate               : 48.0 kHz
    Frame rate                  : 31.250 FPS (1536 spf)
    Bit depth                   : 16 bits
    Compression mode            : Lossy
    Delay relative to video     : -5 ms
    Stream size                 : 257 MiB (5%)
    Language                    : Spanish
    Service kind                : Complete Main
    Default                     : Yes
    Forced                      : No
    Statistics Tags Issue       : mkvmerge v10.0.0 ('To Drown In You') 64bit 2017-08-23 19:08:00 / mkvmerge v10.0.0 ('To Drown In You') 64bit 2017-08-23 19:08:00 / UTC 2017-08-09T14:12:16Z
    FromStats_BitRate           : 192000
    FromStats_Duration          : 03:07:22.528000000
    FromStats_FrameCount        : 351329
    FromStats_StreamSize        : 269820672

    Audio #2
    ID                          : 3
    Format                      : AC-3
    Format/Info                 : Audio Coding 3
    Format settings, Endianness : Big
    Codec ID                    : A_AC3
    Duration                    : 3 h 7 min
    Bit rate mode               : Constant
    Bit rate                    : 256 kb/s
    Channel(s)                  : 2 channels
    Channel positions           : Front: L R
    Sampling rate               : 48.0 kHz
    Frame rate                  : 31.250 FPS (1536 spf)
    Bit depth                   : 16 bits
    Compression mode            : Lossy
    Delay relative to video     : -5 ms
    Stream size                 : 343 MiB (6%)
    Title                       : Stereo
    Language                    : English
    Service kind                : Complete Main
    Default                     : No
    Forced                      : No
    Statistics Tags Issue       : mkvmerge v10.0.0 ('To Drown In You') 64bit 2017-08-23 19:08:00 / mkvmerge v10.0.0 ('To Drown In You') 64bit 2017-08-23 19:08:00 / UTC 2017-08-09T14:12:16Z
    FromStats_BitRate           : 256000
    FromStats_Duration          : 03:07:22.496000000
    FromStats_FrameCount        : 351328
    FromStats_StreamSize        : 359759872

    Text #1
    ID                          : 4
    Format                      : UTF-8
    Codec ID                    : S_TEXT/UTF8
    Codec ID/Info               : UTF-8 Plain Text
    Language                    : Spanish
    Default                     : No
    Forced                      : No
    Statistics Tags Issue       : mkvmerge v10.0.0 ('To Drown In You') 64bit 2017-08-23 19:08:00 / mkvmerge v10.0.0 ('To Drown In You') 64bit 2017-08-23 19:08:00 / UTC 2017-08-09T14:12:16Z
    FromStats_BitRate           : 46
    FromStats_Duration          : 03:05:22.263000000
    FromStats_FrameCount        : 1896
    FromStats_StreamSize        : 65182

    Text #2
    ID                          : 5
    Format                      : UTF-8
    Codec ID                    : S_TEXT/UTF8
    Codec ID/Info               : UTF-8 Plain Text
    Language                    : Spanish
    Default                     : Yes
    Forced                      : No
    Statistics Tags Issue       : mkvmerge v10.0.0 ('To Drown In You') 64bit 2017-08-23 19:08:00 / mkvmerge v10.0.0 ('To Drown In You') 64bit 2017-08-23 19:08:00 / UTC 2017-08-09T14:12:16Z
    FromStats_BitRate           : 45
    FromStats_Duration          : 03:05:21.913000000
    FromStats_FrameCount        : 1900
    FromStats_StreamSize        : 63771

    Text #3
    ID                          : 6
    Format                      : UTF-8
    Codec ID                    : S_TEXT/UTF8
    Codec ID/Info               : UTF-8 Plain Text
    Language                    : English
    Default                     : No
    Forced                      : No
    Statistics Tags Issue       : mkvmerge v10.0.0 ('To Drown In You') 64bit 2017-08-23 19:08:00 / mkvmerge v10.0.0 ('To Drown In You') 64bit 2017-08-23 19:08:00 / UTC 2017-08-09T14:12:16Z
    FromStats_BitRate           : 59
    FromStats_Duration          : 03:05:47.921000000
    FromStats_FrameCount        : 2443
    FromStats_StreamSize        : 83265

    Menu
    00:00:00.000                : :1
    00:20:32.022                : :2
    00:40:44.025                : :3
    00:58:49.067                : :4
    01:19:20.005                : :5
    01:39:33.009                : :6
    01:58:12.043                : :7
    02:20:47.022                : :8
    02:43:47.026                : :9

  • Peso: 5.16 GB

Sinopsis

Descargar Stephen King’s It  hd latino, tambien conocida como It o ESO Un tranquilo y pequeño pueblo de Maine está siendo aterrorizado por una fuerza malévola oculta tras la máscara de un payaso, y que tan sólo se la conoce como “Eso”. Tras sus primeras víctimas, una pandilla formada por siete amigos de la infancia dedicen volver a reunirse para atacar el mal y destruirlo, intentando librar así del terror a su pueblo natal.

 

Audio Latino con Partes Ingles. Fue editado para la version UNRATED

NO tiene subtitilos Forzados, Solo subtitulos Completos, alguien se puede tomar el tiempo hacer los forzados seria buen trabajo

Ficha técnica

Video trailer de la película

Enlaces de descarga

Descargar It – Eso (1990) UNRATED 1080p Latino
Descargar

dpeliculas

Aportes de DPeliculasHDmega la pass es:dpeliculashdmega.org Aportes de CinemaniaHD la pass es:cinemaniahdd.com
Guardado en : Drama , Fantasía , Horror

Películas relacionadas

  • La montaña entre nosotros (2017) 1080p Latino

    2017
    La montaña entre nosotros (2017) 1080p Latino

    0.0 1h 43m 2017

    Adaptación de la novela de Charles Martin. La historia sigue a dos personas distintas, Ashley es una...

    Director: Tim Macarthur

    Género: Aventura

    Actores: Waleed Zuaiter

  • El francotirador (1978) Full 1080p Latino

    1978
    El francotirador (1978) Full 1080p Latino

    0.0 3h 2m 1978

    Descargar Pelicula El francotirador 1978 hd latino Unos amigos de un pequeño pueblo industrial acuden...

    Director: Michael Cimino

    Género: Drama

    Actores: Vitoon Winwitoon

  • Arrow (2017) Temporada 6 WEBDL 1080p Latino

    2012
    Arrow (2017) Temporada 6 WEBDL 1080p Latino

    2.3 0h 42m 2012

    Con el futuro del equipo pendiendo de un hilo, Arrow le dio una nueva definición a la frase “explotar...

    Director: Marc Guggenheim

    Género: Acción

    Actores: Willa Holland

Comentarios 12
  • Jhefferson - 15 septiembre, 2017

    Muchas gracias excelente 😀

  • seba - 09 septiembre, 2017

    subiran la versión no UNRATED ??

    • dpelis

      Administrador
      - 09 septiembre, 2017

      no estimado

  • Isaac21 - 26 agosto, 2017

    Aportaso.

  • masterhd - 24 agosto, 2017

    Saludos amigo, el audio latino es completo? o tiene partes en inglés?

    • dpelis

      Administrador
      - 25 agosto, 2017

      tiene partes ingles

  • Aldair Jesus - 24 agosto, 2017

    A caray, que resolucion es exactamente? me saca de onda eso de 1436×1076

    • dpelis

      Administrador
      - 25 agosto, 2017

      es webdl estimado. las webdl no tiene resolucion fija. eso varia

  • Jonna - 24 agosto, 2017

    Se posteará plateada? saludos

    • dpelis

      Administrador
      - 24 agosto, 2017

      plateada del webdl? si la subi webdl porque no hay BD, en la red.

      • luis - 03 septiembre, 2017

        de hecho si hay bluray al menos yo si lo encontre jeje pero aun asi es genial encontrar esta version de ustedes

        • dpelis

          Administrador
          - 03 septiembre, 2017

          si encontre igual, si se descarga la subire. con bluray