Advertise here

John Wick (2014) 1080p Latino

1.015 vistas
1 estrella2 estrellas3 estrellas4 estrellas5 estrellas (Ninguna valoración todavía)
Cargando…

Información de John Wick (2014) 1080p Latino

Datos de la película

  • Calidad: 1080p
  • Audio: Español Latino AC3 5.1 BLURAY - Ingles AC3 5.1 BLURAY
  • Subtitulos: Español Latino SRT - Ingles SRT
  • Resolución: 1920x800p
  • Formato: MKV
  • Codec: H.264
  • Encoder: Dpelis
  • Mediainfo: Clic para Mostrar Datos Ver
  • John.wick.2014.1080p.Latino.mkv
    Format                      : Matroska
    Format version              : Version 4 / Version 2
    File size                   : 2.96 GiB
    Duration                    : 1 h 41 min
    Overall bit rate            : 4 188 kb/s
    Movie name                  : DPeliculasHDMega.ORG
    Encoded date                : UTC 2017-07-30 21:03:08 / UTC 2017-07-30T01:07:58Z
    Writing application         : mkvmerge v10.0.0 ('To Drown In You') 64bit
    Writing library             : libebml v1.3.4 + libmatroska v1.4.5 / Lavf57.7.2

    Video
    ID                          : 1
    Format                      : AVC
    Format/Info                 : Advanced Video Codec
    Format profile              : High@L4.1
    Format settings, CABAC      : Yes
    Format settings, ReFrames   : 4 frames
    Codec ID                    : V_MPEG4/ISO/AVC
    Duration                    : 1 h 41 min
    Bit rate                    : 3 500 kb/s
    Width                       : 1 920 pixels
    Height                      : 800 pixels
    Display aspect ratio        : 2.40:1
    Frame rate mode             : Constant
    Frame rate                  : 23.976 (24000/1001) FPS
    Color space                 : YUV
    Chroma subsampling          : 4:2:0
    Bit depth                   : 8 bits
    Scan type                   : Progressive
    Bits/(Pixel*Frame)          : 0.095
    Stream size                 : 2.36 GiB (80%)
    Writing library             : x264 core 148 r2708 86b7198
    Encoding settings           : cabac=1 / ref=3 / deblock=1:0:0 / analyse=0x3:0x113 / me=hex / subme=7 / psy=1 / psy_rd=1.00:0.00 / mixed_ref=1 / me_range=16 / chroma_me=1 / trellis=1 / 8x8dct=1 / cqm=0 / deadzone=21,11 / fast_pskip=1 / chroma_qp_offset=-2 / threads=25 / lookahead_threads=4 / sliced_threads=0 / nr=0 / decimate=1 / interlaced=0 / bluray_compat=0 / constrained_intra=0 / bframes=3 / b_pyramid=2 / b_adapt=1 / b_bias=0 / direct=1 / weightb=1 / open_gop=0 / weightp=2 / keyint=240 / keyint_min=24 / scenecut=40 / intra_refresh=0 / rc_lookahead=40 / rc=abr / mbtree=1 / bitrate=3500 / ratetol=1.0 / qcomp=0.60 / qpmin=0 / qpmax=69 / qpstep=4 / vbv_maxrate=62500 / vbv_bufsize=78125 / nal_hrd=none / filler=0 / ip_ratio=1.40 / aq=1:1.00
    Default                     : Yes
    Forced                      : No
    Color range                 : Limited
    Color primaries             : BT.709
    Transfer characteristics    : BT.709
    Matrix coefficients         : BT.709
    Statistics Tags Issue       : mkvmerge v10.0.0 ('To Drown In You') 64bit 2017-07-30 21:03:08 / mkvmerge v10.0.0 ('To Drown In You') 64bit 2017-07-30 21:03:08 / UTC 2017-07-30T01:07:58Z
    FromStats_BitRate           : 3417386
    FromStats_Duration          : 01:41:12.900000000
    FromStats_FrameCount        : 145604
    FromStats_StreamSize        : 2594181161

    Audio #1
    ID                          : 2
    Format                      : AC-3
    Format/Info                 : Audio Coding 3
    Format settings, Endianness : Big
    Codec ID                    : A_AC3
    Duration                    : 1 h 41 min
    Bit rate mode               : Constant
    Bit rate                    : 384 kb/s
    Channel(s)                  : 6 channels
    Channel positions           : Front: L C R, Side: L R, LFE
    Sampling rate               : 48.0 kHz
    Frame rate                  : 31.250 FPS (1536 spf)
    Bit depth                   : 16 bits
    Compression mode            : Lossy
    Delay relative to video     : -5 ms
    Stream size                 : 278 MiB (9%)
    Language                    : Spanish
    Service kind                : Complete Main
    Default                     : Yes
    Forced                      : No
    Statistics Tags Issue       : mkvmerge v10.0.0 ('To Drown In You') 64bit 2017-07-30 21:03:08 / mkvmerge v10.0.0 ('To Drown In You') 64bit 2017-07-30 21:03:08 / UTC 2017-07-30T01:07:58Z
    FromStats_BitRate           : 384000
    FromStats_Duration          : 01:41:12.960000000
    FromStats_FrameCount        : 189780
    FromStats_StreamSize        : 291502080

    Audio #2
    ID                          : 3
    Format                      : AC-3
    Format/Info                 : Audio Coding 3
    Format settings, Endianness : Big
    Codec ID                    : A_AC3
    Duration                    : 1 h 41 min
    Bit rate mode               : Constant
    Bit rate                    : 384 kb/s
    Channel(s)                  : 6 channels
    Channel positions           : Front: L C R, Side: L R, LFE
    Sampling rate               : 48.0 kHz
    Frame rate                  : 31.250 FPS (1536 spf)
    Bit depth                   : 16 bits
    Compression mode            : Lossy
    Delay relative to video     : -5 ms
    Stream size                 : 278 MiB (9%)
    Title                       : Surround
    Language                    : English
    Service kind                : Complete Main
    Default                     : No
    Forced                      : No
    Statistics Tags Issue       : mkvmerge v10.0.0 ('To Drown In You') 64bit 2017-07-30 21:03:08 / mkvmerge v10.0.0 ('To Drown In You') 64bit 2017-07-30 21:03:08 / UTC 2017-07-30T01:07:58Z
    FromStats_BitRate           : 384000
    FromStats_Duration          : 01:41:12.928000000
    FromStats_FrameCount        : 189779
    FromStats_StreamSize        : 291500544

    Text #1
    ID                          : 4
    Format                      : UTF-8
    Codec ID                    : S_TEXT/UTF8
    Codec ID/Info               : UTF-8 Plain Text
    Language                    : Spanish
    Default                     : Yes
    Forced                      : No
    Statistics Tags Issue       : mkvmerge v10.0.0 ('To Drown In You') 64bit 2017-07-30 21:03:08 / mkvmerge v10.0.0 ('To Drown In You') 64bit 2017-07-30 21:03:08 / UTC 2017-07-30T01:07:58Z
    FromStats_BitRate           : 25
    FromStats_Duration          : 01:33:43.619000000
    FromStats_FrameCount        : 666
    FromStats_StreamSize        : 18222

    Text #2
    ID                          : 5
    Format                      : UTF-8
    Codec ID                    : S_TEXT/UTF8
    Codec ID/Info               : UTF-8 Plain Text
    Language                    : English
    Default                     : No
    Forced                      : No
    Statistics Tags Issue       : mkvmerge v10.0.0 ('To Drown In You') 64bit 2017-07-30 21:03:08 / mkvmerge v10.0.0 ('To Drown In You') 64bit 2017-07-30 21:03:08 / UTC 2017-07-30T01:07:58Z
    FromStats_BitRate           : 20
    FromStats_Duration          : 01:40:18.591000000
    FromStats_FrameCount        : 564
    FromStats_StreamSize        : 15586

    Menu
    00:00:00.000                : :00:00:00.000
    00:04:57.506                : :00:04:57.506
    00:12:21.866                : :00:12:21.866
    00:17:07.735                : :00:17:07.735
    00:26:25.167                : :00:26:25.167
    00:32:40.250                : :00:32:40.250
    00:36:24.599                : :00:36:24.599
    00:42:16.034                : :00:42:16.033
    00:45:33.272                : :00:45:33.272
    00:55:02.508                : :00:55:02.507
    00:59:27.564                : :00:59:27.564
    01:06:13.428                : :01:06:13.428
    01:14:15.910                : :01:14:15.910
    01:19:13.040                : :01:19:13.040
    01:27:29.828                : :01:27:29.786
    01:32:24.789                : :01:32:24.789

  • Peso: 2.96 GB

Sinopsis

Película de acción occidental titulado “John Wick” disponible para descargar 1080p latino cuenta la historia de un hombre llamado John Wick, protagonizada por los actores de Hollywood (Keanu Reaves). John Wick, que solía trabajar como asesino se ha transformado en una persona ordinaria después de la muerte de su esposa.

John puni vivir con un perro de la administración de su última esposa y tiene un Ford Mustang de 1969. Una vez allí fue el incidente de la aparición de un criminal que robó y mató a hacer anjingya John perseguir a estos criminales a la ciudad de Nueva York. Después de descubrir la información que él era el blanco de asesinato de un gran mal jefe, así que Juan tenía que tratar de salvarse a sí mismo.

Ficha técnica

Video trailer de la película

Enlaces de descarga

Descargar John Wick (2014) 1080p Latino
Descargar

dpeliculas

Aportes de DPeliculasHDmega la pass es:dpeliculashdmega.org Aportes de CinemaniaHD la pass es:cinemaniahdd.com
Guardado en : Acción , Sagas , Suspense

Películas relacionadas

  • Dulce venganza (2016) 1080p Latino

    2016
    Dulce venganza (2016) 1080p Latino

    2.0 1 h 34 min 2016

    Un asesino de élite llamado Frank, tras ser traicionado por unos gángsters, es enviado a una cirujana...

    Director: Walter Hill

    Género: Acción

    Actores: Zak Santiago

  • La LEGO Ninjago pelicula (2017) Full 1080p Latino

    2017
    La LEGO Ninjago pelicula (2017) Full 1080p Latino

    4.0 1h 40m 2017

    Una tierra lejana amenazada por la oscuridad. En este lugar llamado Ninjago, las fuerzas del bien y del...

    Director: Paul Fisher

    Género: Acción

    Actores: Zach Woods

  • La jugada maestra (2015) 1080p Latino

    2015
    La jugada maestra (2015) 1080p Latino

    0.0 1h 54m 2015

    "Pawn Sacrifice" (El sacrificio del peón) narra la historia de la preparación y del legendario enfrentamiento...

    Director: Edward Zwick

    Género: Drama

    Actores: Zach Fraser

  • El valle de la venganza (2016) Full 1080p Latino

    2016
    El valle de la venganza (2016) Full 1080p Latino

    0.0 1 h 43 min 2016

    Paul, un cowboy solitario siempre en compañía de su perro, llega a un pequeño pueblo en un intento...

    Director: Ti West

    Género: Acción

    Actores: Tommy Nohilly

Comentarios 0