Advertise here

La bella y la bestia (2017) 3D OU Full Latino

978 vistas
1 estrella2 estrellas3 estrellas4 estrellas5 estrellas (Ninguna valoración todavía)
Cargando…

Información de La bella y la bestia (2017) 3D OU Full Latino

Datos de la película

  • Calidad: Full 1080p
  • Audio: Español Latino AC3 5.1 BLURAY - Ingles DTS 5.1 BLURAY
  • Subtitulos: Español Latino PGS - Ingles PGS
  • Resolución: 1920x1080p
  • Formato: MKV
  • Codec: H.264
  • Encoder: Dpelis
  • Mediainfo: Clic para Mostrar Datos Ver
  • Labellay bestia 2017 3D OU Full 1080p Latino.mkv
    Format                      : Matroska
    Format version              : Version 4 / Version 2
    File size                   : 9.15 GiB
    Duration                    : 2 h 9 min
    Overall bit rate            : 10.1 Mb/s
    Movie name                  : DpeliculasHDMega.ORG
    Encoded date                : UTC 2017-06-27 17:46:46
    Writing application         : mkvmerge v10.0.0 ('To Drown In You') 64bit
    Writing library             : libebml v1.3.4 + libmatroska v1.4.5

    Video
    ID                          : 1
    Format                      : AVC
    Format/Info                 : Advanced Video Codec
    Format profile              : High@L4.1
    Format settings, CABAC      : Yes
    Format settings, ReFrames   : 2 frames
    Format settings, GOP        : M=3, N=24
    Codec ID                    : V_MPEG4/ISO/AVC
    Duration                    : 2 h 9 min
    Bit rate                    : 7 419 kb/s
    Width                       : 1 920 pixels
    Height                      : 1 080 pixels
    Display aspect ratio        : 16:9
    Frame rate mode             : Constant
    Frame rate                  : 23.976 (24000/1001) FPS
    Color space                 : YUV
    Chroma subsampling          : 4:2:0
    Bit depth                   : 8 bits
    Scan type                   : Progressive
    Bits/(Pixel*Frame)          : 0.149
    Stream size                 : 6.70 GiB (73%)
    Writing library             : x264 core 142
    Encoding settings           : cabac=1 / ref=1 / deblock=1:-1:-1 / analyse=0x3:0 / me=hex / subme=5 / psy=0 / mixed_ref=0 / me_range=16 / chroma_me=1 / trellis=0 / 8x8dct=1 / cqm=0 / deadzone=21,11 / fast_pskip=0 / chroma_qp_offset=0 / threads=8 / lookahead_threads=2 / sliced_threads=0 / nr=0 / decimate=1 / interlaced=0 / bluray_compat=0 / constrained_intra=0 / bframes=2 / b_pyramid=0 / b_adapt=1 / b_bias=0 / direct=1 / weightb=0 / open_gop=0 / weightp=0 / keyint=24 / keyint_min=13 / scenecut=40 / intra_refresh=0 / rc=crf / mbtree=0 / crf=20.0 / qcomp=0.60 / qpmin=0 / qpmax=69 / qpstep=4 / ip_ratio=1.40 / pb_ratio=1.30 / aq=1:1.00
    Default                     : Yes
    Forced                      : No
    Color range                 : Limited
    Color primaries             : BT.709
    Transfer characteristics    : BT.709
    Matrix coefficients         : BT.709

    Audio #1
    ID                          : 2
    Format                      : AC-3
    Format/Info                 : Audio Coding 3
    Format settings, Endianness : Big
    Codec ID                    : A_AC3
    Duration                    : 2 h 9 min
    Bit rate mode               : Constant
    Bit rate                    : 640 kb/s
    Channel(s)                  : 6 channels
    Channel positions           : Front: L C R, Side: L R, LFE
    Sampling rate               : 48.0 kHz
    Frame rate                  : 31.250 FPS (1536 spf)
    Bit depth                   : 16 bits
    Compression mode            : Lossy
    Stream size                 : 592 MiB (6%)
    Language                    : Spanish
    Service kind                : Complete Main
    Default                     : Yes
    Forced                      : No

    Audio #2
    ID                          : 3
    Format                      : DTS
    Format/Info                 : Digital Theater Systems
    Format profile              : HRA / Core
    Mode                        : 16
    Format settings, Endianness : Big
    Codec ID                    : A_DTS
    Duration                    : 2 h 9 min
    Bit rate mode               : Constant
    Bit rate                    : 2 046 kb/s / 1 509 kb/s
    Channel(s)                  : 6 channels
    Channel positions           : Front: L C R, Side: L R, LFE
    Sampling rate               : 48.0 kHz
    Frame rate                  : 93.750 FPS (512 spf)
    Bit depth                   : 24 bits
    Compression mode            : Lossy
    Stream size                 : 1.85 GiB (20%)
    Language                    : English
    Default                     : No
    Forced                      : No

    Text #1
    ID                          : 4
    Format                      : PGS
    Muxing mode                 : zlib
    Codec ID                    : S_HDMV/PGS
    Codec ID/Info               : Picture based subtitle format used on BDs/HD-DVDs
    Duration                    : 2 h 8 min
    Bit rate                    : 9 468 b/s
    Count of elements           : 4050
    Stream size                 : 8.67 MiB (0%)
    Language                    : English
    Default                     : No
    Forced                      : No

    Text #2
    ID                          : 5
    Format                      : PGS
    Muxing mode                 : zlib
    Codec ID                    : S_HDMV/PGS
    Codec ID/Info               : Picture based subtitle format used on BDs/HD-DVDs
    Duration                    : 2 h 1 min
    Bit rate                    : 11.5 kb/s
    Count of elements           : 3188
    Stream size                 : 10.0 MiB (0%)
    Language                    : Spanish
    Default                     : No
    Forced                      : No

    Menu
    00:00:00.000                : en:(01)00:00:00:000
    00:04:36.276                : en:(02)00:04:36:276
    00:08:06.526                : en:(03)00:08:06:526
    00:11:18.259                : en:(04)00:11:18:259
    00:15:21.544                : en:(05)00:15:21:544
    00:18:57.385                : en:(06)00:18:57:385
    00:25:05.921                : en:(07)00:25:05:921
    00:31:41.566                : en:(08)00:31:41:566
    00:36:08.708                : en:(09)00:36:08:708
    00:42:32.257                : en:(10)00:42:32:257
    00:47:01.318                : en:(11)00:47:01:318
    00:54:44.989                : en:(12)00:54:44:989
    01:00:43.556                : en:(13)01:00:43:556
    01:07:40.931                : en:(14)01:07:40:931
    01:14:38.222                : en:(15)01:14:38:222
    01:19:43.694                : en:(16)01:19:43:694
    01:22:02.751                : en:(17)01:22:02:751
    01:28:53.368                : en:(18)01:28:53:368
    01:34:01.301                : en:(19)01:34:01:301
    01:38:10.175                : en:(20)01:38:10:175
    01:45:23.692                : en:(21)01:45:23:692
    01:49:13.963                : en:(22)01:49:13:963
    01:55:54.197                : en:(23)01:55:54:197
    01:58:49.497                : en:(24)01:58:49:497
    02:09:16.622                : en:(25)02:09:16:622

  • Peso: 9.15 GB

Sinopsis

La Bella y la Bestia (Beauty and the Beast)” es el viaje de fantasía de Bella, una joven hermosa, lista e independiente a la que una bestia hace prisionera en su castillo. A pesar de sus temores, se hace amiga de los habitantes encantados del castillo y aprende a ver más allá del espantoso aspecto de la Bestia y descubre que en su interior está un gran corazón, él del verdadero Príncipe.

Ficha técnica

Video trailer de la película

Enlaces de descarga

Descargar La bella y la bestia (2017) 3D OU Full Latino
Descargar

dpeliculas

Aportes de DPeliculasHDmega la pass es:dpeliculashdmega.org Aportes de CinemaniaHD la pass es:cinemaniahdd.com
Guardado en : Familia , Fantasía , Romance

Películas relacionadas

  • El libro de la selva (2016) Full 1080p Latino

    2016
    El libro de la selva (2016) Full 1080p Latino

    5.0 1h 45m 2016

    Después de ser abandonado en la selva, una familia de lobos cría al pequeño cachorro humano Mowgli....

    Director: Jon Favreau

    Género: Aventura

    Actores: Sean W. Johnson

  • El Regalo Prometido (1996) Full 1080p Latino

    1996
    El Regalo Prometido (1996) Full 1080p Latino

    0.0 1 h 29 min 1996

    Howard Langston es un atareado hombre de negocios que llega tarde a la clase de karate de su hijo Jamie....

    Director: Brian Levant

    Género: Comedia

    Actores: Sinbad

  • Diario De Una Pasión (2004) Full 1080p Latino

    2004
    Diario De Una Pasión (2004) Full 1080p Latino

    0.0 2 h 3 min 2004

    En una residencia de ancianos, un hombre mayor (James Garner) lee a una mujer (Gena Rowlands) una historia...

    Director: Nick Cassavetes

    Género: Drama

    Actores: Traci Dinwiddie

  • Guardianes (2017) Full 1080p Latino

    2017
    Guardianes (2017) Full 1080p Latino

    4.0 1 h 29 min 2017

    Guardianes cuenta la historia de un equipo de héroes reunidos durante la Guerra Fría para combatir...

    Director: Sarik Andreasyan

    Género: Acción

    Actores: Vyacheslav Razbegaev

Comentarios 5
  • Eduardo - 29 junio, 2017

    A pesar de entrar en los enlaces GRATUITOS me dice que EL CONTENIDO ES EXCLUSIVO. INICIE SESION CON SU CUENTA VIP PARA ACCEDER A LOS CONTENIDOS”

    • dpelis

      Administrador
      - 29 junio, 2017

      reparado. estaban intercambiados

      • Eduardo - 30 junio, 2017

        Muchas gracias!

  • paul - 28 junio, 2017

    amigos la subirán en 4k … gracias

    • dpelis

      Administrador
      - 28 junio, 2017

      cuando este el BD 4K