Advertise here

La ciudad perdida Z (2017) 720p Latino

1.724 vistas
1 estrella2 estrellas3 estrellas4 estrellas5 estrellas (Ninguna valoración todavía)
Cargando…

Información de La ciudad perdida Z (2017) 720p Latino

Datos de la película

  • Calidad: 720p
  • Audio: Español Latino AC3 5.1 DVD - Ingles AC3 5.1 BLURAY
  • Subtitulos: Español Latino SRT - Ingles SRT
  • Resolución: 1280x536p
  • Formato: MKV
  • Codec: H.264
  • Encoder: Dpelis
  • Mediainfo: Clic para Mostrar Datos Ver
  • The.lost.city.of.z.2016.720.LATINO.mkv
    Format                      : Matroska
    Format version              : Version 4 / Version 2
    File size                   : 2.46 GiB
    Duration                    : 2 h 21 min
    Overall bit rate            : 2 491 kb/s
    Movie name                  : DPeliculasHDMega.ORG
    Encoded date                : UTC 2017-07-02 00:11:16 / UTC 2017-07-01T11:47:29Z
    Writing application         : mkvmerge v10.0.0 ('To Drown In You') 64bit
    Writing library             : libebml v1.3.4 + libmatroska v1.4.5 / Lavf57.7.2

    Video
    ID                          : 1
    Format                      : AVC
    Format/Info                 : Advanced Video Codec
    Format profile              : High@L4.1
    Format settings, CABAC      : Yes
    Format settings, ReFrames   : 4 frames
    Codec ID                    : V_MPEG4/ISO/AVC
    Duration                    : 2 h 21 min
    Bit rate                    : 1 609 kb/s
    Nominal bit rate            : 1 700 kb/s
    Width                       : 1 280 pixels
    Height                      : 536 pixels
    Display aspect ratio        : 2.40:1
    Frame rate mode             : Constant
    Frame rate                  : 23.976 (24000/1001) FPS
    Color space                 : YUV
    Chroma subsampling          : 4:2:0
    Bit depth                   : 8 bits
    Scan type                   : Progressive
    Bits/(Pixel*Frame)          : 0.098
    Stream size                 : 1.59 GiB (65%)
    Writing library             : x264 core 148 r2708 86b7198
    Encoding settings           : cabac=1 / ref=3 / deblock=1:0:0 / analyse=0x3:0x113 / me=hex / subme=7 / psy=1 / psy_rd=1.00:0.00 / mixed_ref=1 / me_range=16 / chroma_me=1 / trellis=1 / 8x8dct=1 / cqm=0 / deadzone=21,11 / fast_pskip=1 / chroma_qp_offset=-2 / threads=9 / lookahead_threads=1 / sliced_threads=0 / nr=0 / decimate=1 / interlaced=0 / bluray_compat=0 / constrained_intra=0 / bframes=3 / b_pyramid=2 / b_adapt=1 / b_bias=0 / direct=1 / weightb=1 / open_gop=0 / weightp=2 / keyint=240 / keyint_min=24 / scenecut=40 / intra_refresh=0 / rc_lookahead=40 / rc=abr / mbtree=1 / bitrate=1700 / ratetol=1.0 / qcomp=0.60 / qpmin=0 / qpmax=69 / qpstep=4 / vbv_maxrate=62500 / vbv_bufsize=78125 / nal_hrd=none / filler=0 / ip_ratio=1.40 / aq=1:1.00
    Default                     : Yes
    Forced                      : No
    Color range                 : Limited
    Color primaries             : BT.709
    Transfer characteristics    : BT.709
    Matrix coefficients         : BT.709
    Statistics Tags Issue       : mkvmerge v10.0.0 ('To Drown In You') 64bit 2017-07-02 00:11:16 / mkvmerge v10.0.0 ('To Drown In You') 64bit 2017-07-02 00:11:16 / UTC 2017-07-01T11:47:29Z
    FromStats_BitRate           : 1656857
    FromStats_Duration          : 02:21:14.466000000
    FromStats_FrameCount        : 203184
    FromStats_StreamSize        : 1755123213

    Audio #1
    ID                          : 2
    Format                      : AC-3
    Format/Info                 : Audio Coding 3
    Format settings, Endianness : Big
    Codec ID                    : A_AC3
    Duration                    : 2 h 21 min
    Bit rate mode               : Constant
    Bit rate                    : 448 kb/s
    Channel(s)                  : 6 channels
    Channel positions           : Front: L C R, Side: L R, LFE
    Sampling rate               : 48.0 kHz
    Frame rate                  : 31.250 FPS (1536 spf)
    Bit depth                   : 16 bits
    Compression mode            : Lossy
    Delay relative to video     : -5 ms
    Stream size                 : 453 MiB (18%)
    Language                    : Spanish
    Service kind                : Complete Main
    Default                     : Yes
    Forced                      : No
    Statistics Tags Issue       : mkvmerge v10.0.0 ('To Drown In You') 64bit 2017-07-02 00:11:16 / mkvmerge v10.0.0 ('To Drown In You') 64bit 2017-07-02 00:11:16 / UTC 2017-07-01T11:47:29Z
    FromStats_BitRate           : 448000
    FromStats_Duration          : 02:21:14.496000000
    FromStats_FrameCount        : 264828
    FromStats_StreamSize        : 474571776

    Audio #2
    ID                          : 3
    Format                      : AC-3
    Format/Info                 : Audio Coding 3
    Format settings, Endianness : Big
    Codec ID                    : A_AC3
    Duration                    : 2 h 21 min
    Bit rate mode               : Constant
    Bit rate                    : 384 kb/s
    Channel(s)                  : 6 channels
    Channel positions           : Front: L C R, Side: L R, LFE
    Sampling rate               : 48.0 kHz
    Frame rate                  : 31.250 FPS (1536 spf)
    Bit depth                   : 16 bits
    Compression mode            : Lossy
    Delay relative to video     : -5 ms
    Stream size                 : 388 MiB (15%)
    Title                       : Surround
    Language                    : English
    Service kind                : Complete Main
    Default                     : No
    Forced                      : No
    Statistics Tags Issue       : mkvmerge v10.0.0 ('To Drown In You') 64bit 2017-07-02 00:11:16 / mkvmerge v10.0.0 ('To Drown In You') 64bit 2017-07-02 00:11:16 / UTC 2017-07-01T11:47:29Z
    FromStats_BitRate           : 384000
    FromStats_Duration          : 02:21:14.464000000
    FromStats_FrameCount        : 264827
    FromStats_StreamSize        : 406774272

    Text #1
    ID                          : 4
    Format                      : UTF-8
    Codec ID                    : S_TEXT/UTF8
    Codec ID/Info               : UTF-8 Plain Text
    Language                    : Spanish
    Default                     : No
    Forced                      : No
    Statistics Tags Issue       : mkvmerge v10.0.0 ('To Drown In You') 64bit 2017-07-02 00:11:16 / mkvmerge v10.0.0 ('To Drown In You') 64bit 2017-07-02 00:11:16 / UTC 2017-07-01T11:47:29Z
    FromStats_BitRate           : 39
    FromStats_Duration          : 02:10:48.316000000
    FromStats_FrameCount        : 1191
    FromStats_StreamSize        : 38594

    Text #2
    ID                          : 5
    Format                      : UTF-8
    Codec ID                    : S_TEXT/UTF8
    Codec ID/Info               : UTF-8 Plain Text
    Language                    : English
    Default                     : Yes
    Forced                      : No
    Statistics Tags Issue       : mkvmerge v10.0.0 ('To Drown In You') 64bit 2017-07-02 00:11:16 / mkvmerge v10.0.0 ('To Drown In You') 64bit 2017-07-02 00:11:16 / UTC 2017-07-01T11:47:29Z
    FromStats_BitRate           : 63
    FromStats_Duration          : 02:11:49.000000000
    FromStats_FrameCount        : 1568
    FromStats_StreamSize        : 62833

    Menu
    00:00:00.000                : :00:00:00.000
    00:08:21.835                : :00:08:21.751
    00:15:32.932                : :00:15:32.849
    00:21:29.121                : :00:21:29.038
    00:27:10.087                : :00:27:10.045
    00:34:57.721                : :00:34:57.637
    00:44:59.197                : :00:44:59.113
    00:49:36.515                : :00:49:36.432
    00:58:26.003                : :00:58:25.919
    01:04:43.421                : :01:04:43.338
    01:11:10.683                : :01:11:10.600
    01:21:22.378                : :01:21:22.294
    01:27:42.466                : :01:27:42.424
    01:30:42.938                : :01:30:42.854
    01:39:46.314                : :01:39:46.230
    01:44:00.067                : :01:43:59.984
    01:51:40.235                : :01:51:40.193
    01:56:11.089                : :01:56:11.089
    02:01:43.129                : :02:01:43.046
    02:08:34.457                : :02:08:34.373

  • Peso: 2.46 GB

Sinopsis

Tras participar en una expedición topográfica de la Royal Society a Bolivia, el soldado Percy Fawcett (Charlie Hunnam) queda fascinado por la jungla y accede a participar en una expedición más remota, a pesar de alejarle de su mujer, Nina (Sienna Miller), y sus hijos durante varios años. En la selva amazónica, Percy descubre vestigios de antiguas civilizaciones perdidas, y vuelve a Inglaterra convencido de la existencia de una metrópolis hundida, la misteriosa ciudad de Z. Aunque sus argumentos son ridiculizados por la comunidad científica, Fawcett se embarca en un último viaje a la selva brasileña junto con su hijo Jack (Tom Holland) para demostrar sus teorías.

Ficha técnica

Video trailer de la película

Enlaces de descarga

Descargar La ciudad perdida Z (2017) 720p Latino
Descargar

dpeliculas

Aportes de DPeliculasHDmega la pass es:dpeliculashdmega.org Aportes de CinemaniaHD la pass es:cinemaniahdd.com
Guardado en : Acción , Aventura , Drama , Historia

Películas relacionadas

  • Barry Seal: solo en América (2017) 1080p Latino

    2017
    Barry Seal: solo en América (2017) 1080p Latino

    0.0 1 h 54 min 2017

    Basada en la vida real de Barry Seal, un expiloto que se convirtió en un importante narcotraficante...

    Director: Nick DiRosa

    Género: Acción

    Actores: William Mark McCullough

  • Línea mortal: al límite (2017) Full 1080p Latino

    2017
    Línea mortal: al límite (2017) Full 1080p Latino

    0.0 1 h 49 min 2017

    Remake del clasico de los 90 Línea mortal (Flatliners). Un grupo de jóvenes estudiantes de medicina...

    Director: Niels Arden Oplev

    Género: Ciencia ficción

    Actores: Wendy Raquel Robinson

  • La montaña entre nosotros (2017) Full 1080p Latino

    2017
    La montaña entre nosotros (2017) Full 1080p Latino

    5.0 1 h 51 min 2017

    Abandonados a su suerte después de un trágico accidente aéreo, Ben Bass (Idris Elba) y Alex Martin...

    Director: Tim Macarthur

    Género: Aventura

    Actores: Waleed Zuaiter

  • La montaña entre nosotros (2017) 1080p Latino

    2017
    La montaña entre nosotros (2017) 1080p Latino

    4.0 1h 43m 2017

    Adaptación de la novela de Charles Martin. La historia sigue a dos personas distintas, Ashley es una...

    Director: Tim Macarthur

    Género: Aventura

    Actores: Waleed Zuaiter

Comentarios 2
  • Richard - 29 junio, 2017

    Excte calidad, como siempre, lástima la marca de agua en el comienzo. Creo que no es necesario que hagan propaganda, ya son los mejores

    • dpelis

      Administrador
      - 29 junio, 2017

      se le agregan a las webdl q por el momento no hya en la red, ya q muchas web se roban todo, saludos