Advertise here

La Llegada (2016) Full 1080p Latino

3.220 vistas
1 estrella2 estrellas3 estrellas4 estrellas5 estrellas (2 votos, promedio: 5,00 de 5)
Cargando…

Información de La Llegada (2016) Full 1080p Latino

la llegada x265 latino

Datos de la película

  • Calidad: Full 1080p
  • Audio: Español Latino AC3 5.1 BLURAY - Ingles DTS 5.1 BLURAY
  • Subtitulos: Español Latino PGS - Ingles PGS
  • Resolución: 1920x1080p
  • Formato: MKV
  • Codec: H.265
  • Encoder: SebastianHDx
  • Mediainfo: Clic para Mostrar Datos Ver
  • La Llegada (2016) 1080p BluRay x265 HEVC DTS Dual Latino.mkv
    Format                      : Matroska
    Format version              : Version 4 / Version 2
    File size                   : 2.35 GiB
    Duration                    : 1h 56mn
    Overall bit rate            : 2 891 Kbps
    Encoded date                : UTC 2017-02-07 11:56:36
    Writing application         : mkvmerge v8.6.1 ('Flying') 64bit
    Writing library             : libebml v1.3.3 + libmatroska v1.4.4
    DURATION                    : 01:49:16.550000000
    NUMBER_OF_FRAMES            : 2278
    NUMBER_OF_BYTES             : 24416334
    _STATISTICS_WRITING_APP     : mkvmerge v8.6.1 ('Flying') 64bit
    _STATISTICS_WRITING_DATE_UT : 2017-02-07 11:56:36
    _STATISTICS_TAGS            : BPS DURATION NUMBER_OF_FRAMES NUMBER_OF_BYTES

    Video
    ID                          : 1
    Format                      : HEVC
    Format/Info                 : High Efficiency Video Coding
    Format profile              : Main@L4@Main
    Codec ID                    : V_MPEGH/ISO/HEVC
    Duration                    : 1h 56mn
    Bit rate                    : 685 Kbps
    Width                       : 1 920 pixels
    Height                      : 1 080 pixels
    Display aspect ratio        : 16:9
    Frame rate mode             : Constant
    Frame rate                  : 23.976 fps
    Color space                 : YUV
    Chroma subsampling          : 4:2:0
    Bit depth                   : 8 bits
    Bits/(Pixel*Frame)          : 0.014
    Stream size                 : 570 MiB (24%)
    Writing library             : x265 1.9:[Windows][GCC 4.9.0][64 bit] 8bit
    Encoding settings           : wpp / ctu=64 / min-cu-size=8 / max-tu-size=32 / tu-intra-depth=1 / tu-inter-depth=1 / me=3 / subme=3 / merange=57 / rect / no-amp / max-merge=3 / temporal-mvp / no-early-skip / rdpenalty=0 / no-tskip / no-tskip-fast / strong-intra-smoothing / no-lossless / no-cu-lossless / no-constrained-intra / no-fast-intra / open-gop / no-temporal-layers / interlace=0 / keyint=240 / min-keyint=24 / scenecut=40 / rc-lookahead=25 / lookahead-slices=4 / bframes=4 / bframe-bias=0 / b-adapt=2 / ref=4 / limit-refs=3 / limit-modes / weightp / no-weightb / aq-mode=1 / qg-size=32 / aq-strength=1.00 / cbqpoffs=0 / crqpoffs=0 / rd=4 / psy-rd=2.00 / rdoq-level=2 / psy-rdoq=1.00 / signhide / deblock / sao / no-sao-non-deblock / b-pyramid / cutree / no-intra-refresh / rc=crf / crf=20.0 / qcomp=0.60 / qpmin=0 / qpmax=51 / qpstep=4 / ipratio=1.40 / pbratio=1.30
    Default                     : Yes
    Forced                      : No
    Color range                 : Limited
    Color primaries             : BT.709
    Transfer characteristics    : BT.709
    Matrix coefficients         : BT.709
    DURATION                    : 01:56:22.976000000
    NUMBER_OF_FRAMES            : 167424
    NUMBER_OF_BYTES             : 621278166
    _STATISTICS_WRITING_APP     : mkvmerge v8.6.1 ('Flying') 64bit
    _STATISTICS_WRITING_DATE_UT : 2017-02-07 11:56:36
    _STATISTICS_TAGS            : BPS DURATION NUMBER_OF_FRAMES NUMBER_OF_BYTES

    Audio #1
    ID                          : 2
    Format                      : AC-3
    Format/Info                 : Audio Coding 3
    Mode extension              : CM (complete main)
    Format settings, Endianness : Big
    Codec ID                    : A_AC3
    Duration                    : 1h 56mn
    Bit rate mode               : Constant
    Bit rate                    : 640 Kbps
    Channel(s)                  : 6 channels
    Channel positions           : Front: L C R, Side: L R, LFE
    Sampling rate               : 48.0 KHz
    Compression mode            : Lossy
    Delay relative to video     : -83ms
    Stream size                 : 533 MiB (22%)
    Title                       : Español Latino AC3 5.1 [640 Kbps]
    Language                    : Spanish
    Default                     : Yes
    Forced                      : No

    Audio #2
    ID                          : 3
    Format                      : DTS
    Format/Info                 : Digital Theater Systems
    Mode                        : 16
    Format settings, Endianness : Big
    Codec ID                    : A_DTS
    Duration                    : 1h 56mn
    Bit rate mode               : Constant
    Bit rate                    : 1 509 Kbps
    Channel(s)                  : 6 channels
    Channel positions           : Front: L C R, Side: L R, LFE
    Sampling rate               : 48.0 KHz
    Bit depth                   : 24 bits
    Compression mode            : Lossy
    Delay relative to video     : -83ms
    Stream size                 : 1.23 GiB (52%)
    Title                       : Inglés DTS 5.1 [1509 Kbps]
    Language                    : English
    Default                     : No
    Forced                      : No

    Text #1
    ID                          : 4
    Format                      : UTF-8
    Codec ID                    : S_TEXT/UTF8
    Codec ID/Info               : UTF-8 Plain Text
    Title                       : Subtítulos Español Latino - Forzados [SRT]
    Language                    : Spanish
    Default                     : No
    Forced                      : Yes

    Text #2
    ID                          : 5
    Format                      : UTF-8
    Codec ID                    : S_TEXT/UTF8
    Codec ID/Info               : UTF-8 Plain Text
    Title                       : Subtítulos Español Latino [SRT]
    Language                    : Spanish
    Default                     : No
    Forced                      : No

    Text #3
    ID                          : 6
    Format                      : PGS
    Codec ID                    : S_HDMV/PGS
    Codec ID/Info               : Picture based subtitle format used on BDs/HD-DVDs
    Title                       : Subtítulos Español Latino [PGS]
    Language                    : Spanish
    Default                     : No
    Forced                      : No

    Menu
    00:00:00.000                : :Chapter 1
    00:09:50.006                : :Chapter 2
    00:17:32.885                : :Chapter 3
    00:23:28.365                : :Chapter 4
    00:33:54.240                : :Chapter 5
    00:41:01.792                : :Chapter 6
    00:52:26.184                : :Chapter 7
    00:57:34.617                : :Chapter 8
    01:03:06.532                : :Chapter 9
    01:09:29.290                : :Chapter 10
    01:16:09.481                : :Chapter 11
    01:25:21.908                : :Chapter 12
    01:35:37.148                : :Chapter 13
    01:45:26.403                : :Chapter 14

  • Peso: 2.35 GB

Sinopsis

Descargar La Llegada (2016) 1080p BluRay x265 Cuando los vasos misterioso espacio de tierra en todo el mundo, un equipo de élite (Jeremy Renner y Forest Whitaker), dirigidos por el lingüista Louise Bancos (Amy Adams) tratando el motivo de su visita a descubrir. Si la humanidad está al borde de la guerra, Louise y su equipo nunca ponen en peligro la carrera contra el tiempo en su vida y quizás el resto de la humanidad.

Ficha técnica

Video trailer de la película

Enlaces de descarga

Descargar
Descargar La Llegada (2016) Full 1080p Latino

dpeliculas

Aportes de DPeliculasHDmega la pass es:dpeliculashdmega.org Aportes de CinemaniaHD la pass es:cinemaniahdd.com

Películas relacionadas

  • Línea mortal: Al límite (2017) 1080p Latino

    2017
    Línea mortal: Al límite (2017) 1080p Latino

    0.0 1 h 49 min 2017

    Un grupo de jóvenes estudiantes de medicina llevan a cabo un experimento que implica una muerte provocada...

    Director: Niels Arden Oplev

    Género: Ciencia ficción

    Actores: Wendy Raquel Robinson

  • Un reino unido (2016) 1080p Latino

    2016
    Un reino unido (2016) 1080p Latino

    0.0 1 h 50 min 2016

    Biopic sobre el Príncipe Seretse Khama, el rey de Botsuana, que al contraer matrimonio en 1948 con Ruth...

    Director: Amma Asante

    Género: Drama

    Actores: Zackary Momoh

  • The Walking Dead (2017) Temporada 8 WEB-DL 1080p Latino

    2017
    The Walking Dead (2017) Temporada 8 WEB-DL 1080p Latino

    5.0 0h 42m 2017

    Rick, Maggie y Ezekiel reúnen a sus comunidades para derrotar a Negan y los salvadores. Gregory intenta...

    Director: Frank Darabont

    Género: Action & Adventure

    Actores: Norman Reedus

  • Vikingos Temporada 5 (2017) WEB-DL Amazon 1080p Latino

    2017
    Vikingos Temporada 5 (2017) WEB-DL Amazon 1080p Latino

    0.0 0h 44m 2017

    Sigue las aventuras de Ragnar Lothbrok, el héroe más grande de su época. La serie narra las sagas...

    Director: Michael Hirst

    Género: Action & Adventure

    Actores: Moe Dunford

Comentarios 13
  • ricardo - 26 febrero, 2017

    Hola, antes que nada gracias x los aportes. solo que no entiendo la clasificacion x colores. cual color es el mas bajo y cual el mas alto? seria bueno que la clasificacion estuviera explicada en algun lado en la pagina. asi como el significadode los formatos o fuentes de la pelicula. uno tiene que meterse a todas las peliculas para leer los comentarios y ver si es lo que uno cree. gracias, saludos

    • dpelis

      Administrador
      - 27 febrero, 2017

      hola es igual a los otros colores la mas negra calidad baja y la plateada calidad alta. la plateada a veces quedan menos peso pero la calidad es excelente

  • AldoMAX - 16 febrero, 2017

    Los links no abren

    • dpelis

      Administrador
      - 16 febrero, 2017

      hola ya cambie acortador

  • slash - 16 febrero, 2017

    Gracias.

  • david - 15 febrero, 2017

    mega no me deja baja esta pelicula me puedes ayudar

  • oscar - 15 febrero, 2017

    no se les hace muchisimo tiempo 3 link por pelicula y de cada uno muchas paginas para sacar el link SOLO UNO MUCHO TIEMPOOOOOO

    • dpelis

      Administrador
      - 15 febrero, 2017

      hola.

  • david - 14 febrero, 2017

    amigo no puedo bajar la pelicula

    • dpelis

      Administrador
      - 14 febrero, 2017

      como no puede amigo?

      • david - 15 febrero, 2017

        mega no deja bajar la pelicula me puedes ayudar gracias.

  • Leo - 13 febrero, 2017

    No hay LInks de MEGA

    • eric tovar - 27 febrero, 2017

      si hay pero como que esos etan vip