Advertise here

La Reina Victoria y Abdul (2017) 1080p Latino

429 vistas
1 estrella2 estrellas3 estrellas4 estrellas5 estrellas (Ninguna valoración todavía)
Cargando…

Información de La Reina Victoria y Abdul (2017) 1080p Latino

Datos de la película

  • Calidad: 1080p
  • Audio: Español Latino AC3 5.1 BLURAY - Ingles AC3 5.1 BLURAY
  • Subtitulos: Español Latino SRT- FORZADOS SRT
  • Resolución: 1920X804
  • Formato: MKV
  • Codec: H.264
  • Encoder: Dracarys
  • Mediainfo: Clic para Mostrar Datos Ver
  • Format                                   : Matroska
    Format version                           : Version 4 / Version 2
    File size                                : 3.24 GiB
    Duration                                 : 1 h 51 min
    Overall bit rate                         : 4 175 kb/s
    Movie name                               : CinemaniaHDD.com
    Encoded date                             : UTC 2017-12-08 04:42:32 / UTC 2017-12-08T01:56:29Z
    Writing application                      : mkvmerge v15.0.0 ('Duel with the Devil') 64-bit
    Writing library                          : libebml v1.3.5 + libmatroska v1.4.5 / Lavf57.7.2

    Video
    ID                                       : 1
    Format                                   : AVC
    Format/Info                              : Advanced Video Codec
    Format profile                           : High@L4.1
    Format settings                          : CABAC / 5 Ref Frames
    Format settings, CABAC                   : Yes
    Format settings, RefFrames               : 5 frames
    Codec ID                                 : V_MPEG4/ISO/AVC
    Duration                                 : 1 h 51 min
    Bit rate                                 : 3 324 kb/s
    Nominal bit rate                         : 3 500 kb/s
    Width                                    : 1 920 pixels
    Height                                   : 804 pixels
    Display aspect ratio                     : 2.40:1
    Frame rate mode                          : Constant
    Frame rate                               : 23.976 (24000/1001) FPS
    Color space                              : YUV
    Chroma subsampling                       : 4:2:0
    Bit depth                                : 8 bits
    Scan type                                : Progressive
    Bits/(Pixel*Frame)                       : 0.090
    Stream size                              : 2.58 GiB (80%)
    Title                                    : La Reina Victoria y Abdul (2017) 1080p Latino
    Writing library                          : x264 core 148 r2708 86b7198
    Encoding settings                        : cabac=1 / ref=5 / deblock=1:0:0 / analyse=0x3:0x113 / me=umh / subme=8 / psy=1 / psy_rd=1.00:0.00 / mixed_ref=1 / me_range=16 / chroma_me=1 / trellis=1 / 8x8dct=1 / cqm=0 / deadzone=21,11 / fast_pskip=1 / chroma_qp_offset=-2 / threads=25 / lookahead_threads=4 / sliced_threads=0 / nr=0 / decimate=1 / interlaced=0 / bluray_compat=0 / constrained_intra=0 / bframes=3 / b_pyramid=2 / b_adapt=2 / b_bias=0 / direct=3 / weightb=1 / open_gop=0 / weightp=2 / keyint=240 / keyint_min=24 / scenecut=40 / intra_refresh=0 / rc_lookahead=50 / rc=abr / mbtree=1 / bitrate=3500 / ratetol=1.0 / qcomp=0.60 / qpmin=0 / qpmax=69 / qpstep=4 / vbv_maxrate=62500 / vbv_bufsize=78125 / nal_hrd=none / filler=0 / ip_ratio=1.40 / aq=1:1.00
    Language                                 : English
    Default                                  : Yes
    Forced                                   : No
    Color range                              : Limited
    Color primaries                          : BT.709
    Transfer characteristics                 : BT.709
    Matrix coefficients                      : BT.709
    Statistics Tags Issue                    : mkvmerge v15.0.0 ('Duel with the Devil') 64-bit 2017-12-08 04:42:32 / mkvmerge v15.0.0 ('Duel with the Devil') 64-bit 2017-12-08 04:42:32 / UTC 2017-12-08T01:56:29Z
    FromStats_BitRate                        : 3405364
    FromStats_Duration                       : 01:51:10.873000000
    FromStats_FrameCount                     : 159941
    FromStats_StreamSize                     : 2839594620

    Audio #1
    ID                                       : 2
    Format                                   : AC-3
    Format/Info                              : Audio Coding 3
    Format settings, Endianness              : Big
    Codec ID                                 : A_AC3
    Duration                                 : 1 h 51 min
    Bit rate mode                            : Constant
    Bit rate                                 : 384 kb/s
    Channel(s)                               : 6 channels
    Channel positions                        : Front: L C R, Side: L R, LFE
    Sampling rate                            : 48.0 kHz
    Frame rate                               : 31.250 FPS (1536 SPF)
    Bit depth                                : 16 bits
    Compression mode                         : Lossy
    Delay relative to video                  : -5 ms
    Stream size                              : 305 MiB (9%)
    Title                                    : AC3-BluRay
    Language                                 : Spanish
    Service kind                             : Complete Main
    Default                                  : Yes
    Forced                                   : No
    Statistics Tags Issue                    : mkvmerge v15.0.0 ('Duel with the Devil') 64-bit 2017-12-08 04:42:32 / mkvmerge v15.0.0 ('Duel with the Devil') 64-bit 2017-12-08 04:42:32 / UTC 2017-12-08T01:56:29Z
    FromStats_BitRate                        : 384000
    FromStats_Duration                       : 01:51:10.976000000
    FromStats_FrameCount                     : 208468
    FromStats_StreamSize                     : 320206848

    Audio #2
    ID                                       : 3
    Format                                   : AC-3
    Format/Info                              : Audio Coding 3
    Format settings, Endianness              : Big
    Codec ID                                 : A_AC3
    Duration                                 : 1 h 51 min
    Bit rate mode                            : Constant
    Bit rate                                 : 384 kb/s
    Channel(s)                               : 6 channels
    Channel positions                        : Front: L C R, Side: L R, LFE
    Sampling rate                            : 48.0 kHz
    Frame rate                               : 31.250 FPS (1536 SPF)
    Bit depth                                : 16 bits
    Compression mode                         : Lossy
    Delay relative to video                  : -5 ms
    Stream size                              : 305 MiB (9%)
    Title                                    : AC3-BluRay
    Language                                 : English
    Service kind                             : Complete Main
    Default                                  : No
    Forced                                   : No
    Statistics Tags Issue                    : mkvmerge v15.0.0 ('Duel with the Devil') 64-bit 2017-12-08 04:42:32 / mkvmerge v15.0.0 ('Duel with the Devil') 64-bit 2017-12-08 04:42:32 / UTC 2017-12-08T01:56:29Z
    FromStats_BitRate                        : 384000
    FromStats_Duration                       : 01:51:10.912000000
    FromStats_FrameCount                     : 208466
    FromStats_StreamSize                     : 320203776

    Text #1
    ID                                       : 4
    Format                                   : UTF-8
    Codec ID                                 : S_TEXT/UTF8
    Codec ID/Info                            : UTF-8 Plain Text
    Title                                    : Forzados
    Language                                 : Spanish
    Default                                  : Yes
    Forced                                   : Yes
    Statistics Tags Issue                    : mkvmerge v15.0.0 ('Duel with the Devil') 64-bit 2017-12-08 04:42:32 / mkvmerge v15.0.0 ('Duel with the Devil') 64-bit 2017-12-08 04:42:32 / UTC 2017-12-08T01:56:29Z
    FromStats_BitRate                        : 1
    FromStats_Duration                       : 01:43:43.013000000
    FromStats_FrameCount                     : 41
    FromStats_StreamSize                     : 1199

    Text #2
    ID                                       : 5
    Format                                   : UTF-8
    Codec ID                                 : S_TEXT/UTF8
    Codec ID/Info                            : UTF-8 Plain Text
    Title                                    : Completos
    Language                                 : Spanish
    Default                                  : No
    Forced                                   : No
    Statistics Tags Issue                    : mkvmerge v15.0.0 ('Duel with the Devil') 64-bit 2017-12-08 04:42:32 / mkvmerge v15.0.0 ('Duel with the Devil') 64-bit 2017-12-08 04:42:32 / UTC 2017-12-08T01:56:29Z
    FromStats_BitRate                        : 50
    FromStats_Duration                       : 01:43:43.014000000
    FromStats_FrameCount                     : 1295
    FromStats_StreamSize                     : 39602

    Menu
    00:00:00.000                             : :00:00:00.000
    00:05:41.132                             : :00:05:41.132
    00:10:37.804                             : :00:10:37.804
    00:15:44.026                             : :00:15:44.026
    00:20:05.830                             : :00:20:05.830
    00:28:20.699                             : :00:28:20.699
    00:35:27.208                             : :00:35:27.208
    00:41:05.046                             : :00:41:05.046
    00:49:15.161                             : :00:49:15.161
    00:54:43.489                             : :00:54:43.489
    00:59:56.843                             : :00:59:56.843
    01:07:12.111                             : :01:07:12.111
    01:12:12.870                             : :01:12:12.745
    01:17:47.163                             : :01:17:47.162
    01:21:20.793                             : :01:21:20.793
    01:27:25.031                             : :01:27:25.031
    01:30:56.910                             : :01:30:56.910
    01:38:49.465                             : :01:38:49.465
    01:42:31.520                             : :01:42:31.520
    01:44:27.595                             : :01:44:27.595

  • Peso: 3.24 GiB

Sinopsis

En la celebración de los 50 años de reinado de la Reina Victoria, Abdul Karim, conocido como ‘El Munshi’ viaja desde la India a Gran Bretaña para participar en el jubileo. ‘El Munshi’ es un joven secretario indio por el que la reina se interesa creando un afecto especial. Entre ambos se acaba forjando una estrecha amistad y alianza mal recibida dentro de la Casa Real debido al cambio de mentalidad que comienza a darse en la reina. Karim acaba siendo nombrado Secretario de la India, cargo que ejerció durante los últimos 15 años de vida de la monarca. Una historia sobre como la amistad puede cambiar a una persona, una vida.

Ficha técnica

  • Titulo original: Victoria & Abdul
  • Fecha de lanzamiento: 14-09-2017 (United Kingdom, United States of America)
  • Director: Stephen Frears
  • Género: Drama, Historia
  • Puntuación: 0.0 0 votos
  • Duración:
    1 h 51 min

Video trailer de la película

Enlaces de descarga

Descargar La Reina Victoria y Abdul (2017) 1080p Latino
Descargar

dpeliculas

Aportes de DPeliculasHDmega la pass es:dpeliculashdmega.org Aportes de CinemaniaHD la pass es:cinemaniahdd.com
Guardado en : Drama , Historia

Películas relacionadas

  • Arrow (2017) Temporada 6 WEBDL 1080p Latino

    2012
    Arrow (2017) Temporada 6 WEBDL 1080p Latino

    2.3 0h 42m 2012

    Con el futuro del equipo pendiendo de un hilo, Arrow le dio una nueva definición a la frase “explotar...

    Director: Marc Guggenheim

    Género: Acción

    Actores: Willa Holland

  • The Flash (2017) Temporada 4 WEBDL 1080p Latino

    2014
    The Flash (2017) Temporada 4 WEBDL 1080p Latino

    2.8 0h 44m 2014

    Enfrentarse a una versión remanente de uno mismo es algo que nadie debería tener que hacer, pero eso...

    Director: Geoff Johns

    Género: Drama

    Actores: Tom Cavanagh

  • Línea mortal: Al límite (2017) 1080p Latino

    2017
    Línea mortal: Al límite (2017) 1080p Latino

    3.0 1 h 49 min 2017

    Un grupo de jóvenes estudiantes de medicina llevan a cabo un experimento que implica una muerte provocada...

    Director: Niels Arden Oplev

    Género: Ciencia ficción

    Actores: Wendy Raquel Robinson

  • Un reino unido (2016) 1080p Latino

    2016
    Un reino unido (2016) 1080p Latino

    0.0 1 h 50 min 2016

    Biopic sobre el Príncipe Seretse Khama, el rey de Botsuana, que al contraer matrimonio en 1948 con Ruth...

    Director: Amma Asante

    Género: Drama

    Actores: Zackary Momoh

  • The Walking Dead (2017) Temporada 8 WEB-DL 1080p Latino

    2017
    The Walking Dead (2017) Temporada 8 WEB-DL 1080p Latino

    5.0 0h 42m 2017

    Rick, Maggie y Ezekiel reúnen a sus comunidades para derrotar a Negan y los salvadores. Gregory intenta...

    Director: Frank Darabont

    Género: Action & Adventure

    Actores: Norman Reedus

Comentarios 0