Advertise here

La Reina Victoria y Abdul (2017) WEB-DL 1080p Latino

647 vistas
1 estrella2 estrellas3 estrellas4 estrellas5 estrellas (Ninguna valoración todavía)
Cargando…

Información de La Reina Victoria y Abdul (2017) WEB-DL 1080p Latino

Datos de la película

  • Calidad: WEBDL
  • Audio: Español Latino AC3 2.0 iTunes - Ingles AC3 5.1 iTunes
  • Subtitulos: Español Latino SRT- FORZADOS SRT
  • Resolución: 1916X796
  • Formato: MKV
  • Codec: H.264
  • Encoder: Dracarys
  • Mediainfo: Clic para Mostrar Datos Ver
  • Format                                   : Matroska
    Format version                           : Version 4 / Version 2
    File size                                : 4.02 GiB
    Duration                                 : 1 h 51 min
    Overall bit rate                         : 5 181 kb/s
    Movie name                               : cinemaniahdd.com
    Encoded date                             : UTC 2017-12-05 07:32:54
    Writing application                      : mkvmerge v15.0.0 ('Duel with the Devil') 64-bit
    Writing library                          : libebml v1.3.5 + libmatroska v1.4.5

    Video
    ID                                       : 1
    Format                                   : AVC
    Format/Info                              : Advanced Video Codec
    Format profile                           : High@L4
    Format settings                          : CABAC / 5 Ref Frames
    Format settings, CABAC                   : Yes
    Format settings, RefFrames               : 5 frames
    Codec ID                                 : V_MPEG4/ISO/AVC
    Duration                                 : 1 h 51 min
    Bit rate                                 : 4 538 kb/s
    Width                                    : 1 916 pixels
    Height                                   : 796 pixels
    Display aspect ratio                     : 2.40:1
    Frame rate mode                          : Constant
    Frame rate                               : 23.976 (24000/1001) FPS
    Color space                              : YUV
    Chroma subsampling                       : 4:2:0
    Bit depth                                : 8 bits
    Scan type                                : Progressive
    Bits/(Pixel*Frame)                       : 0.124
    Stream size                              : 3.52 GiB (88%)
    Title                                    : La Reina Victoria y Abdul (2017) WEB-DL 1080p Latino
    Language                                 : English
    Default                                  : Yes
    Forced                                   : No
    Color range                              : Limited
    Color primaries                          : BT.709
    Transfer characteristics                 : BT.709
    Matrix coefficients                      : BT.709

    Audio #1
    ID                                       : 2
    Format                                   : AC-3
    Format/Info                              : Audio Coding 3
    Format settings, Endianness              : Big
    Codec ID                                 : A_AC3
    Duration                                 : 1 h 51 min
    Bit rate mode                            : Constant
    Bit rate                                 : 256 kb/s
    Channel(s)                               : 2 channels
    Channel positions                        : Front: L R
    Sampling rate                            : 48.0 kHz
    Frame rate                               : 31.250 FPS (1536 SPF)
    Bit depth                                : 16 bits
    Compression mode                         : Lossy
    Delay relative to video                  : -42 ms
    Stream size                              : 204 MiB (5%)
    Language                                 : Spanish
    Service kind                             : Complete Main
    Default                                  : Yes
    Forced                                   : No

    Audio #2
    ID                                       : 3
    Format                                   : AC-3
    Format/Info                              : Audio Coding 3
    Format settings, Endianness              : Big
    Codec ID                                 : A_AC3
    Duration                                 : 1 h 51 min
    Bit rate mode                            : Constant
    Bit rate                                 : 384 kb/s
    Channel(s)                               : 6 channels
    Channel positions                        : Front: L C R, Side: L R, LFE
    Sampling rate                            : 48.0 kHz
    Frame rate                               : 31.250 FPS (1536 SPF)
    Bit depth                                : 16 bits
    Compression mode                         : Lossy
    Delay relative to video                  : -42 ms
    Stream size                              : 305 MiB (7%)
    Language                                 : English
    Service kind                             : Complete Main
    Default                                  : No
    Forced                                   : No

    Text #1
    ID                                       : 4
    Format                                   : UTF-8
    Codec ID                                 : S_TEXT/UTF8
    Codec ID/Info                            : UTF-8 Plain Text
    Duration                                 : 1 h 43 min
    Bit rate                                 : 1 b/s
    Count of elements                        : 41
    Stream size                              : 1.21 KiB (0%)
    Title                                    : Forzados
    Language                                 : Spanish
    Default                                  : Yes
    Forced                                   : Yes

    Text #2
    ID                                       : 5
    Format                                   : UTF-8
    Codec ID                                 : S_TEXT/UTF8
    Codec ID/Info                            : UTF-8 Plain Text
    Duration                                 : 1 h 43 min
    Bit rate                                 : 53 b/s
    Count of elements                        : 1295
    Stream size                              : 40.8 KiB (0%)
    Language                                 : Spanish
    Default                                  : No
    Forced                                   : No

    Menu
    00:00:00.000                             : en:1
    00:05:42.133                             : en:2
    00:10:38.804                             : en:3
    00:15:45.026                             : en:4
    00:20:06.829                             : en:5
    00:28:21.697                             : en:6
    00:35:28.206                             : en:7
    00:41:06.043                             : en:8
    00:49:16.157                             : en:9
    00:54:44.485                             : en:10
    00:59:57.840                             : en:11
    01:07:13.108                             : en:12
    01:12:13.740                             : en:13
    01:17:48.157                             : en:14
    01:21:21.787                             : en:15
    01:27:26.025                             : en:16
    01:30:57.902                             : en:17
    01:38:50.457                             : en:18
    01:42:32.512                             : en:19
    01:44:28.585                             : en:20

  • Peso: 4.02 GiB

Sinopsis

En la celebración de los 50 años de reinado de la Reina Victoria, Abdul Karim, conocido como ‘El Munshi’ viaja desde la India a Gran Bretaña para participar en el jubileo. ‘El Munshi’ es un joven secretario indio por el que la reina se interesa creando un afecto especial. Entre ambos se acaba forjando una estrecha amistad y alianza mal recibida dentro de la Casa Real debido al cambio de mentalidad que comienza a darse en la reina. Karim acaba siendo nombrado Secretario de la India, cargo que ejerció durante los últimos 15 años de vida de la monarca. Una historia sobre como la amistad puede cambiar a una persona, una vida.

Ficha técnica

  • Titulo original: Victoria & Abdul
  • Fecha de lanzamiento: 14-09-2017 (United Kingdom, United States of America)
  • Director: Stephen Frears
  • Género: Drama, Historia
  • Puntuación: 0.0 0 votos
  • Duración:
    1 h 51 min

Video trailer de la película

Enlaces de descarga

Descargar La Reina Victoria y Abdul (2017) WEB-DL 1080p Latino
Descargar

dpeliculas

Aportes de DPeliculasHDmega la pass es:dpeliculashdmega.org Aportes de CinemaniaHD la pass es:cinemaniahdd.com
Guardado en : Drama , Historia

Películas relacionadas

  • Vikingos Temporada 5 (2017) WEB-DL Amazon 1080p Latino

    2017
    Vikingos Temporada 5 (2017) WEB-DL Amazon 1080p Latino

    0.0 0h 44m 2017

    Sigue las aventuras de Ragnar Lothbrok, el héroe más grande de su época. La serie narra las sagas...

    Director: Michael Hirst

    Género: Action & Adventure

    Actores: Moe Dunford

  • La jugada maestra (2015) 1080p Latino

    2015
    La jugada maestra (2015) 1080p Latino

    0.0 1h 54m 2015

    "Pawn Sacrifice" (El sacrificio del peón) narra la historia de la preparación y del legendario enfrentamiento...

    Director: Edward Zwick

    Género: Drama

    Actores: Zach Fraser

  • El libro de la selva (2016) Full 1080p Latino

    2016
    El libro de la selva (2016) Full 1080p Latino

    5.0 1h 45m 2016

    Después de ser abandonado en la selva, una familia de lobos cría al pequeño cachorro humano Mowgli....

    Director: Jon Favreau

    Género: Aventura

    Actores: Sean W. Johnson

  • Diario De Una Pasión (2004) Full 1080p Latino

    2004
    Diario De Una Pasión (2004) Full 1080p Latino

    0.0 2 h 3 min 2004

    En una residencia de ancianos, un hombre mayor (James Garner) lee a una mujer (Gena Rowlands) una historia...

    Director: Nick Cassavetes

    Género: Drama

    Actores: Traci Dinwiddie

  • Dark (2017) WEB-DL 1080p Latino

    2017
    Dark (2017) WEB-DL 1080p Latino

    5.0 1h 0m 2017

    Tras la desaparición de un niño, cuatro familias desesperadas tratan de entender lo ocurrido a medida...

    Director: Jantje Friese

    Género: Crimen

    Actores: Walter Kreye

Comentarios 0