Advertise here

La seducción (2017) Full 1080p Latino

1.261 vistas
1 estrella2 estrellas3 estrellas4 estrellas5 estrellas (Ninguna valoración todavía)
Cargando…

Información de La seducción (2017) Full 1080p Latino

Datos de la película

  • Calidad: Full 1080p
  • Audio: Español Latino DTS 5.1 BLURAY - Ingles DTS 5.1 BLURAY
  • Subtitulos: Español Latino PGS - Ingles PGS
  • Resolución: 1920x1080p
  • Formato: MKV
  • Codec: H.264
  • Encoder: Dpelis
  • Mediainfo: Clic para Mostrar Datos Ver
  • The Beguiled (2017) Full 1080p Latino.mkv
    Format                      : Matroska
    Format version              : Version 4 / Version 2
    File size                   : 3.47 GiB
    Duration                    : 1 h 33 min
    Overall bit rate            : 5 335 kb/s
    Movie name                  : DPeliculasHDMega.ORG
    Encoded date                : UTC 2017-09-30 00:38:15 / UTC 2017-09-29T04:08:54Z
    Writing application         : mkvmerge v10.0.0 ('To Drown In You') 64bit
    Writing library             : libebml v1.3.4 + libmatroska v1.4.5 / Lavf57.7.2

    Video
    ID                          : 1
    Format                      : AVC
    Format/Info                 : Advanced Video Codec
    Format profile              : High@L4.1
    Format settings, CABAC      : Yes
    Format settings, RefFrames  : 4 frames
    Codec ID                    : V_MPEG4/ISO/AVC
    Duration                    : 1 h 33 min
    Bit rate                    : 2 952 kb/s
    Width                       : 1 920 pixels
    Height                      : 1 080 pixels
    Display aspect ratio        : 16:9
    Frame rate mode             : Constant
    Frame rate                  : 23.976 (24000/1001) FPS
    Color space                 : YUV
    Chroma subsampling          : 4:2:0
    Bit depth                   : 8 bits
    Scan type                   : Progressive
    Bits/(Pixel*Frame)          : 0.059
    Stream size                 : 1.92 GiB (55%)
    Writing library             : x264 core 148 r2708 86b7198
    Encoding settings           : cabac=1 / ref=4 / deblock=1:0:0 / analyse=0x3:0x133 / me=esa / subme=10 / psy=1 / psy_rd=1.00:0.00 / mixed_ref=1 / me_range=24 / chroma_me=1 / trellis=2 / 8x8dct=1 / cqm=0 / deadzone=21,11 / fast_pskip=1 / chroma_qp_offset=-2 / threads=12 / lookahead_threads=2 / sliced_threads=0 / nr=0 / decimate=1 / interlaced=0 / bluray_compat=0 / constrained_intra=0 / bframes=8 / b_pyramid=2 / b_adapt=2 / b_bias=0 / direct=3 / weightb=1 / open_gop=0 / weightp=2 / keyint=240 / keyint_min=24 / scenecut=40 / intra_refresh=0 / rc_lookahead=60 / rc=crf / mbtree=1 / crf=20.0 / qcomp=0.60 / qpmin=0 / qpmax=69 / qpstep=4 / vbv_maxrate=62500 / vbv_bufsize=78125 / crf_max=0.0 / nal_hrd=none / filler=0 / ip_ratio=1.40 / aq=1:1.00
    Default                     : Yes
    Forced                      : No
    Color range                 : Limited
    Color primaries             : BT.709
    Transfer characteristics    : BT.709
    Matrix coefficients         : BT.709
    Statistics Tags Issue       : mkvmerge v10.0.0 ('To Drown In You') 64bit 2017-09-30 00:38:15 / mkvmerge v10.0.0 ('To Drown In You') 64bit 2017-09-30 00:38:15 / UTC 2017-09-29T04:08:54Z
    FromStats_BitRate           : 3033697
    FromStats_Duration          : 01:33:08.583000000
    FromStats_FrameCount        : 133992
    FromStats_StreamSize        : 2119258555

    Audio #1
    ID                          : 2
    Format                      : DTS
    Format/Info                 : Digital Theater Systems
    Mode                        : 16
    Format settings, Endianness : Big
    Codec ID                    : A_DTS
    Duration                    : 1 h 33 min
    Bit rate mode               : Constant
    Bit rate                    : 768 kb/s
    Channel(s)                  : 6 channels
    Channel positions           : Front: L C R, Side: L R, LFE
    Sampling rate               : 48.0 kHz
    Frame rate                  : 93.750 FPS (512 SPF)
    Bit depth                   : 24 bits
    Compression mode            : Lossy
    Stream size                 : 512 MiB (14%)
    Title                       : Surround
    Language                    : Spanish
    Default                     : Yes
    Forced                      : No
    Statistics Tags Issue       : mkvmerge v10.0.0 ('To Drown In You') 64bit 2017-09-30 00:38:15 / mkvmerge v10.0.0 ('To Drown In You') 64bit 2017-09-30 00:38:15 / UTC 2017-09-29T04:08:54Z
    FromStats_BitRate           : 768000
    FromStats_Duration          : 01:33:08.576000000
    FromStats_FrameCount        : 523929
    FromStats_StreamSize        : 536503296

    Audio #2
    ID                          : 3
    Format                      : DTS
    Format/Info                 : Digital Theater Systems
    Mode                        : 16
    Format settings, Endianness : Big
    Codec ID                    : A_DTS
    Duration                    : 1 h 33 min
    Bit rate mode               : Constant
    Bit rate                    : 1 509 kb/s
    Channel(s)                  : 6 channels
    Channel positions           : Front: L C R, Side: L R, LFE
    Sampling rate               : 48.0 kHz
    Frame rate                  : 93.750 FPS (512 SPF)
    Bit depth                   : 24 bits
    Compression mode            : Lossy
    Stream size                 : 1 005 MiB (28%)
    Title                       : Surround
    Language                    : English
    Default                     : No
    Forced                      : No
    Statistics Tags Issue       : mkvmerge v10.0.0 ('To Drown In You') 64bit 2017-09-30 00:38:15 / mkvmerge v10.0.0 ('To Drown In You') 64bit 2017-09-30 00:38:15 / UTC 2017-09-29T04:08:54Z
    FromStats_BitRate           : 1509000
    FromStats_Duration          : 01:33:08.576000000
    FromStats_FrameCount        : 523929
    FromStats_StreamSize        : 1054145148

    Text #1
    ID                          : 4
    Format                      : PGS
    Muxing mode                 : zlib
    Codec ID                    : S_HDMV/PGS
    Codec ID/Info               : Picture based subtitle format used on BDs/HD-DVDs
    Language                    : Spanish
    Default                     : No
    Forced                      : No
    Statistics Tags Issue       : mkvmerge v10.0.0 ('To Drown In You') 64bit 2017-09-30 00:38:15 / mkvmerge v10.0.0 ('To Drown In You') 64bit 2017-09-30 00:38:15 / UTC 2017-09-29T04:08:54Z
    FromStats_BitRate           : 9756
    FromStats_Duration          : 01:31:05.669000000
    FromStats_FrameCount        : 2258
    FromStats_StreamSize        : 6665566

    Text #2
    ID                          : 5
    Format                      : PGS
    Muxing mode                 : zlib
    Codec ID                    : S_HDMV/PGS
    Codec ID/Info               : Picture based subtitle format used on BDs/HD-DVDs
    Language                    : Spanish
    Default                     : No
    Forced                      : No
    Statistics Tags Issue       : mkvmerge v10.0.0 ('To Drown In You') 64bit 2017-09-30 00:38:15 / mkvmerge v10.0.0 ('To Drown In You') 64bit 2017-09-30 00:38:15 / UTC 2017-09-29T04:08:54Z
    FromStats_BitRate           : 55
    FromStats_Duration          : 01:31:05.669000000
    FromStats_FrameCount        : 11
    FromStats_StreamSize        : 38068

    Text #3
    ID                          : 6
    Format                      : PGS
    Muxing mode                 : zlib
    Codec ID                    : S_HDMV/PGS
    Codec ID/Info               : Picture based subtitle format used on BDs/HD-DVDs
    Language                    : English
    Default                     : No
    Forced                      : No
    Statistics Tags Issue       : mkvmerge v10.0.0 ('To Drown In You') 64bit 2017-09-30 00:38:15 / mkvmerge v10.0.0 ('To Drown In You') 64bit 2017-09-30 00:38:15 / UTC 2017-09-29T04:08:54Z
    FromStats_BitRate           : 12222
    FromStats_Duration          : 01:29:50.427000000
    FromStats_FrameCount        : 2642
    FromStats_StreamSize        : 8235566

    Menu
    00:00:00.000                : :Chapter 1
    00:05:49.641                : :Chapter 2
    00:09:24.439                : :Chapter 3
    00:13:35.982                : :Chapter 4
    00:18:02.248                : :Chapter 5
    00:24:52.199                : :Chapter 6
    00:31:00.650                : :Chapter 7
    00:34:20.725                : :Chapter 8
    00:41:45.003                : :Chapter 9
    00:44:20.950                : :Chapter 10
    00:48:38.165                : :Chapter 11
    00:54:47.367                : :Chapter 12
    01:00:50.188                : :Chapter 13
    01:04:36.581                : :Chapter 14
    01:11:04.844                : :Chapter 15
    01:13:30.489                : :Chapter 16
    01:16:26.665                : :Chapter 17
    01:21:33.472                : :Chapter 18
    01:26:06.286                : :Chapter 19
    01:29:22.482                : :Chapter 20

  • Peso: 3.47 GB

Sinopsis

Un soldado de la unión es herido de gravedad durante la guerra civil estadounidense, pero, tras ser encontrado por una joven, es acogido y protegido en la escuela femenina en la que ella estudia. Allí se recuperará mientras acaba con la tranquilidad del lugar, pues intentará seducir a las mujeres que allí residen. Aunque, tras un terrible accidente, su situación se complicará todavía más y terminará cambiando su actitud.

La cineasta Sofia Coppola (Lost in Translation) escribe y dirige este remake de El Seductor, la película de 1971 protagonizada por Clint Eastwood. Las actrices Nicole Kidman (El secreto de una obsesión), Kirsten Dunst (Midnight Special) y Elle Fanning (Trumbo: La lista negra de Hollywood) encabezan el reparto femenino de la cinta, mientras que Colin Farrell (Animales fantásticos y dónde encontrarlos) encarna al soldado herido.

Ficha técnica

Video trailer de la película

Enlaces de descarga

Descargar La seducción (2017) Full 1080p Latino
Descargar

dpeliculas

Aportes de DPeliculasHDmega la pass es:dpeliculashdmega.org Aportes de CinemaniaHD la pass es:cinemaniahdd.com
Guardado en : Drama , FULL 1080p Pesadas , Western

Películas relacionadas

  • Línea mortal: al límite (2017) Full 1080p Latino

    2017
    Línea mortal: al límite (2017) Full 1080p Latino

    0.0 1 h 49 min 2017

    Remake del clasico de los 90 Línea mortal (Flatliners). Un grupo de jóvenes estudiantes de medicina...

    Director: Niels Arden Oplev

    Género: Ciencia ficción

    Actores: Wendy Raquel Robinson

  • La montaña entre nosotros (2017) Full 1080p Latino

    2017
    La montaña entre nosotros (2017) Full 1080p Latino

    5.0 1 h 51 min 2017

    Abandonados a su suerte después de un trágico accidente aéreo, Ben Bass (Idris Elba) y Alex Martin...

    Director: Tim Macarthur

    Género: Aventura

    Actores: Waleed Zuaiter

  • La montaña entre nosotros (2017) 1080p Latino

    2017
    La montaña entre nosotros (2017) 1080p Latino

    4.0 1h 43m 2017

    Adaptación de la novela de Charles Martin. La historia sigue a dos personas distintas, Ashley es una...

    Director: Tim Macarthur

    Género: Aventura

    Actores: Waleed Zuaiter

Comentarios 2
  • paulo - 30 septiembre, 2017

    UNA CONSULTA NO ME HABIA DADO CUENTA QUE TENIA FRANJAS AL COSTADO Y PORQUE?, SALDRA EN PANTALLA COMPLETA

    • dpelis

      Administrador
      - 01 octubre, 2017

      hola. no saldra estimado