Advertise here

La serie Divergente: Insurgente (2015) Full Latino

781 vistas
1 estrella2 estrellas3 estrellas4 estrellas5 estrellas (Ninguna valoración todavía)
Cargando…

Información de La serie Divergente: Insurgente (2015) Full Latino

Datos de la película

  • Calidad: Full 1080p
  • Audio: Español Latino AC3 5.1 BLURAY - Ingles AC3 5.1 BLURAY
  • Subtitulos: Español Latino PGS - Ingles PGS
  • Resolución: 1920x1080p
  • Formato: MKV
  • Codec: H.264
  • Encoder: Dpelis1
  • Mediainfo: Clic para Mostrar Datos Ver
  • The Divergent Series Insurgent (2015) FULL HD Latino-Ingles (RESUBIDA).mkv
    Format                      : Matroska
    Format version              : Version 4 / Version 2
    File size                   : 4.05 GiB
    Duration                    : 1 h 59 min
    Overall bit rate            : 4 868 kb/s
    Encoded date                : UTC 2017-07-21 02:32:00 / UTC 2017-07-07T03:30:41Z
    Writing application         : mkvmerge v10.0.0 ('To Drown In You') 64bit
    Writing library             : libebml v1.3.4 + libmatroska v1.4.5 / Lavf57.7.2

    Video
    ID                          : 1
    Format                      : AVC
    Format/Info                 : Advanced Video Codec
    Format profile              : High@L4.1
    Format settings, CABAC      : Yes
    Format settings, ReFrames   : 4 frames
    Codec ID                    : V_MPEG4/ISO/AVC
    Duration                    : 1 h 59 min
    Bit rate                    : 3 492 kb/s
    Width                       : 1 920 pixels
    Height                      : 1 080 pixels
    Display aspect ratio        : 16:9
    Frame rate mode             : Constant
    Frame rate                  : 23.976 (24000/1001) FPS
    Color space                 : YUV
    Chroma subsampling          : 4:2:0
    Bit depth                   : 8 bits
    Scan type                   : Progressive
    Bits/(Pixel*Frame)          : 0.070
    Stream size                 : 2.90 GiB (72%)
    Writing library             : x264 core 148 r2708 86b7198
    Encoding settings           : cabac=1 / ref=4 / deblock=1:0:0 / analyse=0x3:0x133 / me=esa / subme=10 / psy=1 / psy_rd=1.00:0.00 / mixed_ref=1 / me_range=24 / chroma_me=1 / trellis=2 / 8x8dct=1 / cqm=0 / deadzone=21,11 / fast_pskip=1 / chroma_qp_offset=-2 / threads=12 / lookahead_threads=2 / sliced_threads=0 / nr=0 / decimate=1 / interlaced=0 / bluray_compat=0 / constrained_intra=0 / bframes=8 / b_pyramid=2 / b_adapt=2 / b_bias=0 / direct=3 / weightb=1 / open_gop=0 / weightp=2 / keyint=240 / keyint_min=24 / scenecut=40 / intra_refresh=0 / rc_lookahead=60 / rc=crf / mbtree=1 / crf=20.0 / qcomp=0.60 / qpmin=0 / qpmax=69 / qpstep=4 / vbv_maxrate=62500 / vbv_bufsize=78125 / crf_max=0.0 / nal_hrd=none / filler=0 / ip_ratio=1.40 / aq=1:1.00
    Default                     : Yes
    Forced                      : No
    Color range                 : Limited
    Color primaries             : BT.709
    Transfer characteristics    : BT.709
    Matrix coefficients         : BT.709
    Statistics Tags Issue       : mkvmerge v10.0.0 ('To Drown In You') 64bit 2017-07-21 02:32:00 / mkvmerge v10.0.0 ('To Drown In You') 64bit 2017-07-21 02:32:00 / UTC 2017-07-07T03:30:41Z
    FromStats_BitRate           : 3570852
    FromStats_Duration          : 01:59:00.384000000
    FromStats_FrameCount        : 171198
    FromStats_StreamSize        : 3187157117

    Audio #1
    ID                          : 2
    Format                      : AC-3
    Format/Info                 : Audio Coding 3
    Format settings, Endianness : Big
    Codec ID                    : A_AC3
    Duration                    : 1 h 59 min
    Bit rate mode               : Constant
    Bit rate                    : 640 kb/s
    Channel(s)                  : 6 channels
    Channel positions           : Front: L C R, Side: L R, LFE
    Sampling rate               : 48.0 kHz
    Frame rate                  : 31.250 FPS (1536 spf)
    Bit depth                   : 16 bits
    Compression mode            : Lossy
    Delay relative to video     : 300 ms
    Stream size                 : 545 MiB (13%)
    Language                    : Spanish
    Service kind                : Complete Main
    Default                     : Yes
    Forced                      : No
    Statistics Tags Issue       : mkvmerge v10.0.0 ('To Drown In You') 64bit 2017-07-21 02:32:00 / mkvmerge v10.0.0 ('To Drown In You') 64bit 2017-07-21 02:32:00 / UTC 2017-07-07T03:30:41Z
    FromStats_BitRate           : 640000
    FromStats_Duration          : 01:58:59.200000000
    FromStats_FrameCount        : 223100
    FromStats_StreamSize        : 571136000

    Audio #2
    ID                          : 3
    Format                      : AC-3
    Format/Info                 : Audio Coding 3
    Format settings, Endianness : Big
    Codec ID                    : A_AC3
    Duration                    : 1 h 59 min
    Bit rate mode               : Constant
    Bit rate                    : 640 kb/s
    Channel(s)                  : 6 channels
    Channel positions           : Front: L C R, Side: L R, LFE
    Sampling rate               : 48.0 kHz
    Frame rate                  : 31.250 FPS (1536 spf)
    Bit depth                   : 16 bits
    Compression mode            : Lossy
    Delay relative to video     : -5 ms
    Stream size                 : 545 MiB (13%)
    Language                    : English
    Service kind                : Complete Main
    Default                     : No
    Forced                      : No
    Statistics Tags Issue       : mkvmerge v10.0.0 ('To Drown In You') 64bit 2017-07-21 02:32:00 / mkvmerge v10.0.0 ('To Drown In You') 64bit 2017-07-21 02:32:00 / UTC 2017-07-07T03:30:41Z
    FromStats_BitRate           : 640000
    FromStats_Duration          : 01:59:00.384000000
    FromStats_FrameCount        : 223137
    FromStats_StreamSize        : 571230720

    Text #1
    ID                          : 4
    Format                      : UTF-8
    Codec ID                    : S_TEXT/UTF8
    Codec ID/Info               : UTF-8 Plain Text
    Default                     : Yes
    Forced                      : No
    Statistics Tags Issue       : mkvmerge v10.0.0 ('To Drown In You') 64bit 2017-07-21 02:32:00 / mkvmerge v10.0.0 ('To Drown In You') 64bit 2017-07-21 02:32:00 / UTC 2017-07-07T03:30:41Z
    FromStats_BitRate           : 87
    FromStats_Duration          : 00:00:10.100000000
    FromStats_FrameCount        : 1
    FromStats_StreamSize        : 110

    Text #2
    ID                          : 5
    Format                      : PGS
    Muxing mode                 : zlib
    Codec ID                    : S_HDMV/PGS
    Codec ID/Info               : Picture based subtitle format used on BDs/HD-DVDs
    Language                    : Spanish
    Default                     : No
    Forced                      : No
    Statistics Tags Issue       : mkvmerge v10.0.0 ('To Drown In You') 64bit 2017-07-21 02:32:00 / mkvmerge v10.0.0 ('To Drown In You') 64bit 2017-07-21 02:32:00 / UTC 2017-07-07T03:30:41Z
    FromStats_BitRate           : 8496
    FromStats_Duration          : 01:47:04.501000000
    FromStats_FrameCount        : 2376
    FromStats_StreamSize        : 6822972

    Text #3
    ID                          : 6
    Format                      : PGS
    Muxing mode                 : zlib
    Codec ID                    : S_HDMV/PGS
    Codec ID/Info               : Picture based subtitle format used on BDs/HD-DVDs
    Language                    : English
    Default                     : No
    Forced                      : No
    Statistics Tags Issue       : mkvmerge v10.0.0 ('To Drown In You') 64bit 2017-07-21 02:32:00 / mkvmerge v10.0.0 ('To Drown In You') 64bit 2017-07-21 02:32:00 / UTC 2017-07-07T03:30:41Z
    FromStats_BitRate           : 8700
    FromStats_Duration          : 01:47:04.751000000
    FromStats_FrameCount        : 2368
    FromStats_StreamSize        : 6987376

  • Peso: 4,05 GB

Sinopsis

Descargar gratis La serie Divergente: Insurgente (2015) Full Latino. Tris (Shailene Woodley) y Cuatro (Theo James) son ahora fugitivos que son perseguidos por Jeanine (Kate Winslet), la líder de los eruditos. Tris deberá averiguar lo que su familia se sacrificó para proteger mientras los eruditos harán cualquier cosa para detenerlos. Atormentada por las elecciones de su pasado pero desesperada por proteger a los que ama, Tris, junto a Cuatro, se enfrentarán a un reto tras otro para desbloquear la verdad de su pasado y el fturo de su mundo. Secuela de “Divergente” (2014).

 

Audio latino Reparado con 300 delay  – Resubida Julio 20 2017

Ficha técnica

Video trailer de la película

Enlaces de descarga

Descargar La serie Divergente: Insurgente (2015) Full Latino
Descargar

dpeliculas

Aportes de DPeliculasHDmega la pass es:dpeliculashdmega.org Aportes de CinemaniaHD la pass es:cinemaniahdd.com

Películas relacionadas

  • Dulce venganza (2016) 1080p Latino

    2016
    Dulce venganza (2016) 1080p Latino

    2.0 1 h 34 min 2016

    Un asesino de élite llamado Frank, tras ser traicionado por unos gángsters, es enviado a una cirujana...

    Director: Walter Hill

    Género: Acción

    Actores: Zak Santiago

  • Línea mortal: Al límite (2017) 1080p Latino

    2017
    Línea mortal: Al límite (2017) 1080p Latino

    0.0 1 h 49 min 2017

    Un grupo de jóvenes estudiantes de medicina llevan a cabo un experimento que implica una muerte provocada...

    Director: Niels Arden Oplev

    Género: Ciencia ficción

    Actores: Wendy Raquel Robinson

  • La jugada maestra (2015) 1080p Latino

    2015
    La jugada maestra (2015) 1080p Latino

    0.0 1h 54m 2015

    "Pawn Sacrifice" (El sacrificio del peón) narra la historia de la preparación y del legendario enfrentamiento...

    Director: Edward Zwick

    Género: Drama

    Actores: Zach Fraser

  • El libro de la selva (2016) Full 1080p Latino

    2016
    El libro de la selva (2016) Full 1080p Latino

    5.0 1h 45m 2016

    Después de ser abandonado en la selva, una familia de lobos cría al pequeño cachorro humano Mowgli....

    Director: Jon Favreau

    Género: Aventura

    Actores: Sean W. Johnson

Comentarios 10
  • luis - 24 julio, 2017

    no se puede descargar dice que tiene que esperar 24 hrs para descargar

    • dpelis

      Administrador
      - 25 julio, 2017

      use otro servidor

  • slash - 23 julio, 2017

    Muchas gracias, de lujo con estos aportes, gracias cine y a bi… dpelis 1.

  • Alexis| - 19 julio, 2017

    Disculpe, hay un desfase en toda la película. Gracias 😀

    • dpelis

      Administrador
      - 21 julio, 2017

      si estimado ya fue reparado

  • Leonardo - 19 julio, 2017

    Que no el BD trae audio DTS HD 7.1?

    • dpelis

      Administrador
      - 19 julio, 2017

      tra dts 5.1 y 7.1 pero no sube en dts 7.1 porq pesa 3gb audio

  • Alexis - 11 julio, 2017

    Hay un desfase en el audio en toda la peli. Gracias 😀

    • dpelis

      Administrador
      - 21 julio, 2017

      Resubida, tenia un desafe de 3 milisegundos

  • Cazador de Vampiros - 11 julio, 2017

    Muy buenos aportes!!! Me encanta que suban Sagas. Quizas puedan subir El Hobbit en calidad pesada y con la mejor resolución posible!! Muchas gracias!