Advertise here

La vida de Calabacín (2016) Full 1080p

2.214 vistas
1 estrella2 estrellas3 estrellas4 estrellas5 estrellas (1 votos, promedio: 5,00 de 5)
Cargando…

Información de La vida de Calabacín (2016) Full 1080p

Datos de la película

  • Calidad: Full 1080p
  • Audio: Español DTS 5.1 BLURAY
  • Subtitulos: Español PGS
  • Resolución: 1920x1080
  • Formato: MKV
  • Codec: H.264
  • Encoder: Dpelis
  • Mediainfo: Clic para Mostrar Datos Ver
  • La vida de Calabacín 2017 Full 1080p Latino.mkv
    Format                      : Matroska
    Format version              : Version 4 / Version 2
    File size                   : 1.92 GiB
    Duration                    : 1 h 5 min
    Overall bit rate            : 4 179 kb/s
    Movie name                  : DPeliculasHDMega.ORG
    Encoded date                : UTC 2017-06-19 22:46:27 / UTC 2017-06-19T15:25:07Z
    Writing application         : mkvmerge v10.0.0 ('To Drown In You') 64bit
    Writing library             : libebml v1.3.4 + libmatroska v1.4.5 / Lavf57.7.2

    Video
    ID                          : 1
    Format                      : AVC
    Format/Info                 : Advanced Video Codec
    Format profile              : High@L4.1
    Format settings, CABAC      : Yes
    Format settings, ReFrames   : 4 frames
    Codec ID                    : V_MPEG4/ISO/AVC
    Duration                    : 1 h 5 min
    Bit rate                    : 2 587 kb/s
    Width                       : 1 920 pixels
    Height                      : 1 080 pixels
    Display aspect ratio        : 16:9
    Frame rate mode             : Constant
    Frame rate                  : 24.000 FPS
    Color space                 : YUV
    Chroma subsampling          : 4:2:0
    Bit depth                   : 8 bits
    Scan type                   : Progressive
    Bits/(Pixel*Frame)          : 0.052
    Stream size                 : 1.19 GiB (62%)
    Writing library             : x264 core 148 r2708 86b7198
    Encoding settings           : cabac=1 / ref=4 / deblock=1:0:0 / analyse=0x3:0x133 / me=esa / subme=10 / psy=1 / psy_rd=1.00:0.00 / mixed_ref=1 / me_range=24 / chroma_me=1 / trellis=2 / 8x8dct=1 / cqm=0 / deadzone=21,11 / fast_pskip=1 / chroma_qp_offset=-2 / threads=34 / lookahead_threads=5 / sliced_threads=0 / nr=0 / decimate=1 / interlaced=0 / bluray_compat=0 / constrained_intra=0 / bframes=8 / b_pyramid=2 / b_adapt=2 / b_bias=0 / direct=3 / weightb=1 / open_gop=0 / weightp=2 / keyint=240 / keyint_min=24 / scenecut=40 / intra_refresh=0 / rc_lookahead=60 / rc=crf / mbtree=1 / crf=20.0 / qcomp=0.60 / qpmin=0 / qpmax=69 / qpstep=4 / vbv_maxrate=62500 / vbv_bufsize=78125 / crf_max=0.0 / nal_hrd=none / filler=0 / ip_ratio=1.40 / aq=1:1.00
    Default                     : Yes
    Forced                      : No
    Color range                 : Limited
    Color primaries             : BT.709
    Transfer characteristics    : BT.709
    Matrix coefficients         : BT.709
    Statistics Tags Issue       : mkvmerge v10.0.0 ('To Drown In You') 64bit 2017-06-19 22:46:27 / mkvmerge v10.0.0 ('To Drown In You') 64bit 2017-06-19 22:46:27 / UTC 2017-06-19T15:25:07Z
    FromStats_BitRate           : 2659387
    FromStats_Duration          : 01:05:43.000000000
    FromStats_FrameCount        : 94632
    FromStats_StreamSize        : 1310745457

    Audio
    ID                          : 2
    Format                      : DTS
    Format/Info                 : Digital Theater Systems
    Mode                        : 16
    Format settings, Endianness : Big
    Codec ID                    : A_DTS
    Duration                    : 1 h 5 min
    Bit rate mode               : Constant
    Bit rate                    : 1 509 kb/s
    Channel(s)                  : 6 channels
    Channel positions           : Front: L C R, Side: L R, LFE
    Sampling rate               : 48.0 kHz
    Frame rate                  : 93.750 FPS (512 spf)
    Bit depth                   : 24 bits
    Compression mode            : Lossy
    Stream size                 : 709 MiB (36%)
    Title                       : Surround
    Language                    : Spanish
    Default                     : Yes
    Forced                      : No
    Statistics Tags Issue       : mkvmerge v10.0.0 ('To Drown In You') 64bit 2017-06-19 22:46:27 / mkvmerge v10.0.0 ('To Drown In You') 64bit 2017-06-19 22:46:27 / UTC 2017-06-19T15:25:07Z
    FromStats_BitRate           : 1508999
    FromStats_Duration          : 01:05:42.998000000
    FromStats_FrameCount        : 369656
    FromStats_StreamSize        : 743747872

    Text
    ID                          : 3
    Format                      : PGS
    Muxing mode                 : zlib
    Codec ID                    : S_HDMV/PGS
    Codec ID/Info               : Picture based subtitle format used on BDs/HD-DVDs
    Language                    : Spanish
    Default                     : No
    Forced                      : No
    Statistics Tags Issue       : mkvmerge v10.0.0 ('To Drown In You') 64bit 2017-06-19 22:46:27 / mkvmerge v10.0.0 ('To Drown In You') 64bit 2017-06-19 22:46:27 / UTC 2017-06-19T15:25:07Z
    FromStats_BitRate           : 9201
    FromStats_Duration          : 00:58:05.250000000
    FromStats_FrameCount        : 1325
    FromStats_StreamSize        : 4008896

    Menu
    00:00:00.000                : :Chapter 1
    00:04:42.000                : :Chapter 2
    00:08:07.583                : :Chapter 3
    00:12:03.583                : :Chapter 4
    00:16:07.708                : :Chapter 5
    00:20:28.167                : :Chapter 6
    00:23:51.417                : :Chapter 7
    00:29:00.083                : :Chapter 8
    00:32:53.708                : :Chapter 9
    00:37:26.417                : :Chapter 10
    00:41:34.417                : :Chapter 11
    00:45:29.917                : :Chapter 12
    00:49:13.792                : :Chapter 13
    00:53:19.000                : :Chapter 14
    00:57:29.167                : :Chapter 15
    01:00:31.125                : :Chapter 16

  • Peso: 1.92 GB

Sinopsis

Calabacín es un niño valiente que después de perder a su madre tiene que ingresar en un hogar de acogida, con otros niños huérfanos de su edad. En un primer momento se esfuerza por encontrar su lugar en este nuevo medio hostil. Sin embargo, con la ayuda de sus nuevos amigos, Calabacín aprende a confiar, encuentra el verdadero amor y una nueva familia.

Ficha técnica

Video trailer de la película

Enlaces de descarga

Descargar La vida de Calabacín (2016) Full 1080p
Descargar

dpeliculas

Aportes de DPeliculasHDmega la pass es:dpeliculashdmega.org Aportes de CinemaniaHD la pass es:cinemaniahdd.com

Películas relacionadas

  • Línea mortal: al límite (2017) Full 1080p Latino

    2017
    Línea mortal: al límite (2017) Full 1080p Latino

    0.0 1 h 49 min 2017

    Remake del clasico de los 90 Línea mortal (Flatliners). Un grupo de jóvenes estudiantes de medicina...

    Director: Niels Arden Oplev

    Género: Ciencia ficción

    Actores: Wendy Raquel Robinson

  • La montaña entre nosotros (2017) Full 1080p Latino

    2017
    La montaña entre nosotros (2017) Full 1080p Latino

    5.0 1 h 51 min 2017

    Abandonados a su suerte después de un trágico accidente aéreo, Ben Bass (Idris Elba) y Alex Martin...

    Director: Tim Macarthur

    Género: Aventura

    Actores: Waleed Zuaiter

  • La montaña entre nosotros (2017) 1080p Latino

    2017
    La montaña entre nosotros (2017) 1080p Latino

    4.0 1h 43m 2017

    Adaptación de la novela de Charles Martin. La historia sigue a dos personas distintas, Ashley es una...

    Director: Tim Macarthur

    Género: Aventura

    Actores: Waleed Zuaiter

Comentarios 0