Advertise here

Las Voces (2014) Full 1080p Latino

488 vistas
1 estrella2 estrellas3 estrellas4 estrellas5 estrellas (Ninguna valoración todavía)
Cargando…

Información de Las Voces (2014) Full 1080p Latino

Datos de la película

  • Calidad: Full 1080p
  • Audio: Español Latino AC3 5.1 BLURAY - Ingles DTS 5.1 BLURAY
  • Subtitulos: Español Latino PGS - Ingles PGS
  • Resolución: 1920X1080
  • Formato: MKV
  • Codec: H.264
  • Encoder: Dracarys
  • Mediainfo: Clic para Mostrar Datos Ver
  • Format                                   : Matroska
    Format version                           : Version 4 / Version 2
    File size                                : 4.66 GiB
    Duration                                 : 1 h 43 min
    Overall bit rate                         : 6 436 kb/s
    Movie name                               : CinemaniaHDD.com
    Encoded date                             : UTC 2017-12-06 22:58:59 / UTC 2017-12-06T13:05:02Z
    Writing application                      : mkvmerge v15.0.0 ('Duel with the Devil') 64-bit
    Writing library                          : libebml v1.3.5 + libmatroska v1.4.5 / Lavf57.7.2

    Video
    ID                                       : 1
    Format                                   : AVC
    Format/Info                              : Advanced Video Codec
    Format profile                           : High@L4.1
    Format settings                          : CABAC / 4 Ref Frames
    Format settings, CABAC                   : Yes
    Format settings, RefFrames               : 4 frames
    Codec ID                                 : V_MPEG4/ISO/AVC
    Duration                                 : 1 h 43 min
    Bit rate                                 : 4 351 kb/s
    Width                                    : 1 920 pixels
    Height                                   : 1 080 pixels
    Display aspect ratio                     : 16:9
    Frame rate mode                          : Constant
    Frame rate                               : 23.976 (24000/1001) FPS
    Color space                              : YUV
    Chroma subsampling                       : 4:2:0
    Bit depth                                : 8 bits
    Scan type                                : Progressive
    Bits/(Pixel*Frame)                       : 0.088
    Stream size                              : 3.15 GiB (68%)
    Title                                    : Las Voces (2014) Full 1080p Latino
    Writing library                          : x264 core 148 r2708 86b7198
    Encoding settings                        : cabac=1 / ref=4 / deblock=1:0:0 / analyse=0x3:0x133 / me=esa / subme=10 / psy=1 / psy_rd=1.00:0.00 / mixed_ref=1 / me_range=24 / chroma_me=1 / trellis=2 / 8x8dct=1 / cqm=0 / deadzone=21,11 / fast_pskip=1 / chroma_qp_offset=-2 / threads=34 / lookahead_threads=5 / sliced_threads=0 / nr=0 / decimate=1 / interlaced=0 / bluray_compat=0 / constrained_intra=0 / bframes=8 / b_pyramid=2 / b_adapt=2 / b_bias=0 / direct=3 / weightb=1 / open_gop=0 / weightp=2 / keyint=240 / keyint_min=24 / scenecut=40 / intra_refresh=0 / rc_lookahead=60 / rc=crf / mbtree=1 / crf=20.0 / qcomp=0.60 / qpmin=0 / qpmax=69 / qpstep=4 / vbv_maxrate=62500 / vbv_bufsize=78125 / crf_max=0.0 / nal_hrd=none / filler=0 / ip_ratio=1.40 / aq=1:1.00
    Language                                 : English
    Default                                  : Yes
    Forced                                   : No
    Color range                              : Limited
    Color primaries                          : BT.709
    Transfer characteristics                 : BT.709
    Matrix coefficients                      : BT.709
    Statistics Tags Issue                    : mkvmerge v15.0.0 ('Duel with the Devil') 64-bit 2017-12-06 22:58:59 / mkvmerge v15.0.0 ('Duel with the Devil') 64-bit 2017-12-06 22:58:59 / UTC 2017-12-06T13:05:02Z
    FromStats_BitRate                        : 4456560
    FromStats_Duration                       : 01:43:36.711000000
    FromStats_FrameCount                     : 149052
    FromStats_StreamSize                     : 3463143329

    Audio #1
    ID                                       : 2
    Format                                   : AC-3
    Format/Info                              : Audio Coding 3
    Format settings, Endianness              : Big
    Codec ID                                 : A_AC3
    Duration                                 : 1 h 43 min
    Bit rate mode                            : Constant
    Bit rate                                 : 448 kb/s
    Channel(s)                               : 6 channels
    Channel positions                        : Front: L C R, Side: L R, LFE
    Sampling rate                            : 48.0 kHz
    Frame rate                               : 31.250 FPS (1536 SPF)
    Bit depth                                : 16 bits
    Compression mode                         : Lossy
    Stream size                              : 332 MiB (7%)
    Title                                    : AC3-BluRay
    Language                                 : Spanish
    Service kind                             : Complete Main
    Default                                  : Yes
    Forced                                   : No
    Statistics Tags Issue                    : mkvmerge v15.0.0 ('Duel with the Devil') 64-bit 2017-12-06 22:58:59 / mkvmerge v15.0.0 ('Duel with the Devil') 64-bit 2017-12-06 22:58:59 / UTC 2017-12-06T13:05:02Z
    FromStats_BitRate                        : 448000
    FromStats_Duration                       : 01:43:36.736000000
    FromStats_FrameCount                     : 194273
    FromStats_StreamSize                     : 348137216

    Audio #2
    ID                                       : 3
    Format                                   : DTS
    Format/Info                              : Digital Theater Systems
    Mode                                     : 16
    Format settings, Endianness              : Big
    Codec ID                                 : A_DTS
    Duration                                 : 1 h 43 min
    Bit rate mode                            : Constant
    Bit rate                                 : 1 509 kb/s
    Channel(s)                               : 6 channels
    Channel positions                        : Front: L C R, Side: L R, LFE
    Sampling rate                            : 48.0 kHz
    Frame rate                               : 93.750 FPS (512 SPF)
    Bit depth                                : 24 bits
    Compression mode                         : Lossy
    Stream size                              : 1.09 GiB (23%)
    Title                                    : DTS-BluRay
    Language                                 : English
    Default                                  : No
    Forced                                   : No
    Statistics Tags Issue                    : mkvmerge v15.0.0 ('Duel with the Devil') 64-bit 2017-12-06 22:58:59 / mkvmerge v15.0.0 ('Duel with the Devil') 64-bit 2017-12-06 22:58:59 / UTC 2017-12-06T13:05:02Z
    FromStats_BitRate                        : 1509000
    FromStats_Duration                       : 01:43:36.704000000
    FromStats_FrameCount                     : 582816
    FromStats_StreamSize                     : 1172625792

    Text #1
    ID                                       : 4
    Format                                   : PGS
    Muxing mode                              : zlib
    Codec ID                                 : S_HDMV/PGS
    Codec ID/Info                            : Picture based subtitle format used on BDs/HD-DVDs
    Language                                 : Spanish
    Default                                  : No
    Forced                                   : No
    Statistics Tags Issue                    : mkvmerge v15.0.0 ('Duel with the Devil') 64-bit 2017-12-06 22:58:59 / mkvmerge v15.0.0 ('Duel with the Devil') 64-bit 2017-12-06 22:58:59 / UTC 2017-12-06T13:05:02Z
    FromStats_BitRate                        : 34776
    FromStats_Duration                       : 01:34:50.810000000
    FromStats_FrameCount                     : 2404
    FromStats_StreamSize                     : 24738558

    Text #2
    ID                                       : 5
    Format                                   : PGS
    Muxing mode                              : zlib
    Codec ID                                 : S_HDMV/PGS
    Codec ID/Info                            : Picture based subtitle format used on BDs/HD-DVDs
    Language                                 : English
    Default                                  : No
    Forced                                   : No
    Statistics Tags Issue                    : mkvmerge v15.0.0 ('Duel with the Devil') 64-bit 2017-12-06 22:58:59 / mkvmerge v15.0.0 ('Duel with the Devil') 64-bit 2017-12-06 22:58:59 / UTC 2017-12-06T13:05:02Z
    FromStats_BitRate                        : 36019
    FromStats_Duration                       : 01:33:30.647000000
    FromStats_FrameCount                     : 2374
    FromStats_StreamSize                     : 25261457

    Menu
    00:00:00.000                             : :Chapter 1
    00:07:30.241                             : :Chapter 2
    00:15:14.705                             : :Chapter 3
    00:22:56.333                             : :Chapter 4
    00:30:41.465                             : :Chapter 5
    00:39:29.784                             : :Chapter 6
    00:48:43.712                             : :Chapter 7
    01:00:10.524                             : :Chapter 8
    01:08:43.244                             : :Chapter 9
    01:16:26.040                             : :Chapter 10
    01:26:33.939                             : :Chapter 11
    01:36:12.725                             : :Chapter 12

  • Peso: 4.66 GiB

Sinopsis

Jerry vive en un piso con la única compañía de su perro Bosco y de su gato Mr. Whiskers. Hasta aquí todo parece normal, pero cuando conoce a la bella Fiona, nuestro protagonista llega a su casa y no duda en contarle a sus animales de compañía sobre el encuentro. Evidentemente, ellos contestan.

Ficha técnica

Video trailer de la película

Enlaces de descarga

Descargar Las Voces (2014) Full 1080p Latino
Descargar

dpeliculas

Aportes de DPeliculasHDmega la pass es:dpeliculashdmega.org Aportes de CinemaniaHD la pass es:cinemaniahdd.com

Películas relacionadas

  • Star Trek: En la oscuridad (2013) Full 1080p Latino

    2013
    Star Trek: En la oscuridad (2013) Full 1080p Latino

    5.0 2 h 12 min 2013

    Cuando a la tripulación de la nave Enterprise le ordenan que regrese a casa, en la Tierra se enfrentan...

    Director: Vanessa Meier

    Género: Acción

    Actores: Zoe Saldana

  • Arrow (2017) Temporada 6 WEBDL 1080p Latino

    2012
    Arrow (2017) Temporada 6 WEBDL 1080p Latino

    2.3 0h 42m 2012

    Con el futuro del equipo pendiendo de un hilo, Arrow le dio una nueva definición a la frase “explotar...

    Director: Marc Guggenheim

    Género: Acción

    Actores: Willa Holland

  • Dulce venganza (2016) 1080p Latino

    2016
    Dulce venganza (2016) 1080p Latino

    2.0 1 h 34 min 2016

    Un asesino de élite llamado Frank, tras ser traicionado por unos gángsters, es enviado a una cirujana...

    Director: Walter Hill

    Género: Acción

    Actores: Zak Santiago

  • La hora del cambio (2017) 1080p Latino

    2017
    La hora del cambio (2017) 1080p Latino

    0.0 1 h 32 min 2017

    Los vecinos del pequeño pueblo siciliano de Pietrammare viven acostumbrados al caos que conlleva “saltarse...

    Director: Valentino Picone

    Género: Comedia

    Actores: Vincenzo Ferrera

Comentarios 1
  • seba12 seba12

    Suscriptor
    - 07 diciembre, 2017

    Hola, que pasa con los enlaces de Mega? En la mayoria de las ultimas subidas, no estan disponibles. Gracias.