Advertise here

LEGO DC Super Hero Girls: Brain Drain (2017) Webdl 1080p Latino

1.548 vistas
1 estrella2 estrellas3 estrellas4 estrellas5 estrellas (1 votos, promedio: 4,00 de 5)
Cargando…

Información de LEGO DC Super Hero Girls: Brain Drain (2017) Webdl 1080p Latino

Datos de la película

  • Calidad: WEBDL
  • Audio: Español Latino AC3 2.0 iTunes - Ingles AC3 5.1 iTunes
  • Subtitulos: Español Latino SRT
  • Resolución: 1912x1072p
  • Formato: MKV
  • Codec: H.264
  • Encoder: Dpelis
  • Mediainfo: Clic para Mostrar Datos Ver
  • LEGO DC Super Hero Girls (2017) WEBDL 1080p Latino.mkv
    Format                      : Matroska
    Format version              : Version 4 / Version 2
    File size                   : 3.01 GiB
    Duration                    : 1 h 15 min
    Overall bit rate            : 5 726 kb/s
    Movie name                  : DPeliculasHDMega.ORG
    Encoded date                : UTC 2017-07-25 02:48:43
    Writing application         : mkvmerge v10.0.0 ('To Drown In You') 64bit
    Writing library             : libebml v1.3.4 + libmatroska v1.4.5

    Video
    ID                          : 1
    Format                      : AVC
    Format/Info                 : Advanced Video Codec
    Format profile              : High@L4
    Format settings, CABAC      : Yes
    Format settings, ReFrames   : 4 frames
    Codec ID                    : V_MPEG4/ISO/AVC
    Duration                    : 1 h 15 min
    Bit rate                    : 5 084 kb/s
    Width                       : 1 912 pixels
    Height                      : 1 072 pixels
    Display aspect ratio        : 16:9
    Frame rate mode             : Constant
    Frame rate                  : 23.976 (24000/1001) FPS
    Color space                 : YUV
    Chroma subsampling          : 4:2:0
    Bit depth                   : 8 bits
    Scan type                   : Progressive
    Bits/(Pixel*Frame)          : 0.103
    Stream size                 : 2.68 GiB (89%)
    Language                    : English
    Default                     : Yes
    Forced                      : No
    Color range                 : Limited
    Color primaries             : BT.709
    Transfer characteristics    : BT.709
    Matrix coefficients         : BT.709

    Audio #1
    ID                          : 2
    Format                      : AC-3
    Format/Info                 : Audio Coding 3
    Format settings, Endianness : Big
    Codec ID                    : A_AC3
    Duration                    : 1 h 15 min
    Bit rate mode               : Constant
    Bit rate                    : 256 kb/s
    Channel(s)                  : 2 channels
    Channel positions           : Front: L R
    Sampling rate               : 48.0 kHz
    Frame rate                  : 31.250 FPS (1536 spf)
    Bit depth                   : 16 bits
    Compression mode            : Lossy
    Stream size                 : 138 MiB (4%)
    Language                    : Spanish
    Service kind                : Complete Main
    Default                     : Yes
    Forced                      : No

    Audio #2
    ID                          : 3
    Format                      : AC-3
    Format/Info                 : Audio Coding 3
    Format settings, Endianness : Big
    Codec ID                    : A_AC3
    Duration                    : 1 h 15 min
    Bit rate mode               : Constant
    Bit rate                    : 384 kb/s
    Channel(s)                  : 6 channels
    Channel positions           : Front: L C R, Side: L R, LFE
    Sampling rate               : 48.0 kHz
    Frame rate                  : 31.250 FPS (1536 spf)
    Bit depth                   : 16 bits
    Compression mode            : Lossy
    Stream size                 : 207 MiB (7%)
    Language                    : English
    Service kind                : Complete Main
    Default                     : No
    Forced                      : No

    Text #1
    ID                          : 4
    Format                      : UTF-8
    Codec ID                    : S_TEXT/UTF8
    Codec ID/Info               : UTF-8 Plain Text
    Duration                    : 1 h 14 min
    Bit rate                    : 85 b/s
    Count of elements           : 1151
    Stream size                 : 46.5 KiB (0%)
    Language                    : Spanish
    Default                     : No
    Forced                      : No

    Text #2
    ID                          : 5
    Format                      : UTF-8
    Codec ID                    : S_TEXT/UTF8
    Codec ID/Info               : UTF-8 Plain Text
    Duration                    : 1 h 6 min
    Bit rate                    : 4 b/s
    Count of elements           : 92
    Stream size                 : 2.21 KiB (0%)
    Language                    : Spanish
    Default                     : Yes
    Forced                      : No

    Menu
    00:00:00.000                : en:1
    00:11:45.000                : en:2
    00:20:45.000                : en:3
    00:31:08.000                : en:4
    00:41:43.000                : en:5
    00:54:16.000                : en:6
    01:05:47.000                : en:7

  • Peso: 3.01 GB

Sinopsis

Cuando Supergirl, Wonder Woman, Batgirl, Bumblebee y Katana de repente se dan cuenta de que no pueden recordar un solo momento de su lunes en Super Hero High, los jóvenes DC Super Heroes en acción de detección! Sospechando el juego sucio, se reúnen para volver sobre sus pasos y descubrir el misterio de quién robó exactamente sus recuerdos – y qué plan nefasto podría estar en marcha?

Ficha técnica

  • Titulo original: LEGO DC Super Hero Girls: Brain Drain
  • Fecha de lanzamiento: 26-07-2017 (United States of America)
  • Director: Todd Grimes
  • Género: Animación
  • Puntuación: 4.0 1 votos
  • Duración:
    1h 15m

Video trailer de la película

Enlaces de descarga

Descargar LEGO DC Super Hero Girls: Brain Drain (2017) Webdl 1080p Latino
Descargar

dpeliculas

Aportes de DPeliculasHDmega la pass es:dpeliculashdmega.org Aportes de CinemaniaHD la pass es:cinemaniahdd.com
Guardado en : Animación

Películas relacionadas

  • La LEGO Ninjago pelicula (2017) Full 1080p Latino

    2017
    La LEGO Ninjago pelicula (2017) Full 1080p Latino

    4.0 1h 40m 2017

    Una tierra lejana amenazada por la oscuridad. En este lugar llamado Ninjago, las fuerzas del bien y del...

    Director: Paul Fisher

    Género: Acción

    Actores: Zach Woods

  • La LEGO Ninjago pelicula (2017) 1080p Latino

    2017
    La LEGO Ninjago pelicula (2017) 1080p Latino

    0.0 1h 40m 2017

    En la película, la batalla por Ninjago City llama la atención del joven maestro constructor Lloyd (Ninja...

    Director: Paul Fisher

    Género: Acción

    Actores: Zach Woods

  • Happy Family (2017) Full 1080p Latino

    2017
    Happy Family (2017) Full 1080p Latino

    3.5 1 h 32 min 2017

    La familia Wünschmann no es exactamente una familia feliz pero mamá Emma animará a todos a dejar sus...

    Director: Holger Tappe

    Género: Animación

    Actores: Nick Frost

Comentarios 1
  • luis diaz - 27 julio, 2017

    gracias bajando, garcias por usar otra alternativa en la descarga……………..