Advertise here

Los impostores (2003) Full 1080p Latino

1.458 vistas
1 estrella2 estrellas3 estrellas4 estrellas5 estrellas (Ninguna valoración todavía)
Cargando…

Información de Los impostores (2003) Full 1080p Latino

Datos de la película

  • Calidad: Full 1080p
  • Audio: Español Latino AC3 2.0 BLURAY - Ingles DTS 5.1 BLURAY
  • Subtitulos: Español Latino PGS - Ingles PGS
  • Resolución: 1920x1080p
  • Formato: MKV
  • Codec: H.264
  • Encoder: Dpelis
  • Mediainfo: Clic para Mostrar Datos Ver
  • Matchstick Men (2003) Full 1080p Latino.mkv
    Format                      : Matroska
    Format version              : Version 4 / Version 2
    File size                   : 5.98 GiB
    Duration                    : 1 h 56 min
    Overall bit rate            : 7 375 kb/s
    Movie name                  : DPeliculasHDMega.ORG
    Encoded date                : UTC 2017-09-30 00:27:46 / UTC 2017-09-29T12:20:29Z
    Writing application         : mkvmerge v10.0.0 ('To Drown In You') 64bit
    Writing library             : libebml v1.3.4 + libmatroska v1.4.5 / Lavf57.7.2

    Video
    ID                          : 1
    Format                      : AVC
    Format/Info                 : Advanced Video Codec
    Format profile              : High@L4.1
    Format settings, CABAC      : Yes
    Format settings, RefFrames  : 4 frames
    Codec ID                    : V_MPEG4/ISO/AVC
    Duration                    : 1 h 56 min
    Bit rate                    : 5 527 kb/s
    Width                       : 1 920 pixels
    Height                      : 1 080 pixels
    Display aspect ratio        : 16:9
    Frame rate mode             : Constant
    Frame rate                  : 23.976 (24000/1001) FPS
    Color space                 : YUV
    Chroma subsampling          : 4:2:0
    Bit depth                   : 8 bits
    Scan type                   : Progressive
    Bits/(Pixel*Frame)          : 0.111
    Stream size                 : 4.48 GiB (75%)
    Writing library             : x264 core 148 r2708 86b7198
    Encoding settings           : cabac=1 / ref=4 / deblock=1:0:0 / analyse=0x3:0x133 / me=esa / subme=10 / psy=1 / psy_rd=1.00:0.00 / mixed_ref=1 / me_range=24 / chroma_me=1 / trellis=2 / 8x8dct=1 / cqm=0 / deadzone=21,11 / fast_pskip=1 / chroma_qp_offset=-2 / threads=12 / lookahead_threads=2 / sliced_threads=0 / nr=0 / decimate=1 / interlaced=0 / bluray_compat=0 / constrained_intra=0 / bframes=8 / b_pyramid=2 / b_adapt=2 / b_bias=0 / direct=3 / weightb=1 / open_gop=0 / weightp=2 / keyint=240 / keyint_min=24 / scenecut=40 / intra_refresh=0 / rc_lookahead=60 / rc=crf / mbtree=1 / crf=20.0 / qcomp=0.60 / qpmin=0 / qpmax=69 / qpstep=4 / vbv_maxrate=62500 / vbv_bufsize=78125 / crf_max=0.0 / nal_hrd=none / filler=0 / ip_ratio=1.40 / aq=1:1.00
    Default                     : Yes
    Forced                      : No
    Color range                 : Limited
    Color primaries             : BT.709
    Transfer characteristics    : BT.709
    Matrix coefficients         : BT.709
    Statistics Tags Issue       : mkvmerge v10.0.0 ('To Drown In You') 64bit 2017-09-30 00:27:46 / mkvmerge v10.0.0 ('To Drown In You') 64bit 2017-09-30 00:27:46 / UTC 2017-09-29T12:20:29Z
    FromStats_BitRate           : 5609618
    FromStats_Duration          : 01:56:08.170000000
    FromStats_FrameCount        : 167069
    FromStats_StreamSize        : 4886097274

    Audio #1
    ID                          : 2
    Format                      : AC-3
    Format/Info                 : Audio Coding 3
    Mode                        : Dolby Digital
    Format settings, Endianness : Big
    Codec ID                    : A_AC3
    Duration                    : 1 h 56 min
    Bit rate mode               : Constant
    Bit rate                    : 192 kb/s
    Channel(s)                  : 2 channels
    Channel positions           : Front: L R
    Sampling rate               : 48.0 kHz
    Frame rate                  : 31.250 FPS (1536 SPF)
    Bit depth                   : 16 bits
    Compression mode            : Lossy
    Stream size                 : 159 MiB (3%)
    Title                       : Stereo
    Language                    : Spanish
    Service kind                : Complete Main
    Default                     : No
    Forced                      : No
    Statistics Tags Issue       : mkvmerge v10.0.0 ('To Drown In You') 64bit 2017-09-30 00:27:46 / mkvmerge v10.0.0 ('To Drown In You') 64bit 2017-09-30 00:27:46 / UTC 2017-09-29T12:20:29Z
    FromStats_BitRate           : 192000
    FromStats_Duration          : 01:56:08.224000000
    FromStats_FrameCount        : 217757
    FromStats_StreamSize        : 167237376

    Audio #2
    ID                          : 3
    Format                      : DTS
    Format/Info                 : Digital Theater Systems
    Mode                        : 16
    Format settings, Endianness : Big
    Codec ID                    : A_DTS
    Duration                    : 1 h 56 min
    Bit rate mode               : Constant
    Bit rate                    : 1 509 kb/s
    Channel(s)                  : 6 channels
    Channel positions           : Front: L C R, Side: L R, LFE
    Sampling rate               : 48.0 kHz
    Frame rate                  : 93.750 FPS (512 SPF)
    Bit depth                   : 16 bits
    Compression mode            : Lossy
    Stream size                 : 1.22 GiB (20%)
    Title                       : Surround
    Language                    : English
    Default                     : No
    Forced                      : No
    Statistics Tags Issue       : mkvmerge v10.0.0 ('To Drown In You') 64bit 2017-09-30 00:27:46 / mkvmerge v10.0.0 ('To Drown In You') 64bit 2017-09-30 00:27:46 / UTC 2017-09-29T12:20:29Z
    FromStats_BitRate           : 1508999
    FromStats_Duration          : 01:56:08.203000000
    FromStats_FrameCount        : 653269
    FromStats_StreamSize        : 1314377228

    Text #1
    ID                          : 4
    Format                      : PGS
    Muxing mode                 : zlib
    Codec ID                    : S_HDMV/PGS
    Codec ID/Info               : Picture based subtitle format used on BDs/HD-DVDs
    Language                    : Spanish
    Default                     : No
    Forced                      : No
    Statistics Tags Issue       : mkvmerge v10.0.0 ('To Drown In You') 64bit 2017-09-30 00:27:46 / mkvmerge v10.0.0 ('To Drown In You') 64bit 2017-09-30 00:27:46 / UTC 2017-09-29T12:20:29Z
    FromStats_BitRate           : 28260
    FromStats_Duration          : 01:55:41.727000000
    FromStats_FrameCount        : 2811
    FromStats_StreamSize        : 24522487

    Text #2
    ID                          : 5
    Format                      : PGS
    Muxing mode                 : zlib
    Codec ID                    : S_HDMV/PGS
    Codec ID/Info               : Picture based subtitle format used on BDs/HD-DVDs
    Language                    : English
    Default                     : No
    Forced                      : No
    Statistics Tags Issue       : mkvmerge v10.0.0 ('To Drown In You') 64bit 2017-09-30 00:27:46 / mkvmerge v10.0.0 ('To Drown In You') 64bit 2017-09-30 00:27:46 / UTC 2017-09-29T12:20:29Z
    FromStats_BitRate           : 33491
    FromStats_Duration          : 01:55:41.727000000
    FromStats_FrameCount        : 3083
    FromStats_StreamSize        : 29060869

    Menu
    00:00:00.000                : :Chapter 1
    00:02:04.666                : :Chapter 2
    00:05:21.279                : :Chapter 3
    00:09:46.169                : :Chapter 4
    00:13:52.999                : :Chapter 5
    00:20:01.200                : :Chapter 6
    00:24:17.539                : :Chapter 7
    00:30:22.612                : :Chapter 8
    00:33:49.903                : :Chapter 9
    00:36:10.418                : :Chapter 10
    00:40:32.847                : :Chapter 11
    00:45:39.111                : :Chapter 12
    00:49:02.565                : :Chapter 13
    00:52:47.998                : :Chapter 14
    00:54:59.671                : :Chapter 15
    00:59:43.371                : :Chapter 16
    01:02:29.246                : :Chapter 17
    01:06:16.931                : :Chapter 18
    01:10:13.251                : :Chapter 19
    01:16:07.438                : :Chapter 20
    01:19:19.088                : :Chapter 21
    01:22:05.963                : :Chapter 22
    01:27:06.805                : :Chapter 23
    01:30:59.537                : :Chapter 24
    01:34:16.234                : :Chapter 25
    01:38:14.013                : :Chapter 26
    01:43:19.276                : :Chapter 27
    01:45:00.336                : :Chapter 28
    01:47:58.472                : :Chapter 29
    01:51:25.512                : :Chapter 30

  • Peso: 5.98 GB

Sinopsis

Roy (Nicolas Cage) y Frank (Sam Rockwell) son dos estafadores de poca monta.La vida privada de Roy es más bien problemática: padece agorafobia, es un maniático compulsivo, un fumador empedernido y no tiene ningún tipo de relación personal; a veces, cuando sus manías empiezan a poner en peligro su rendimiento y su cordura, se ve obligado a visitar a un psicoanalista (Bruce Altman) para seguir funcionando. Gracias a la terapia que le prescribe su médico, llega a saber que tiene una hija adolescente, cosa que sospechaba, pero que nunca se había atrevido a confirmar. Y lo que es más preocupante, Angela (Alison Lohman) quiere conocer al padre al que nunca ha visto. Al principio, la aparición de Angela perturba la ordenada rutina de su neurótico padre. Sin embargo, a pesar de su peculiar manera de asumir la paternidad, Roy comienza a disfrutar de una relación que nunca había soñado tener.

Ficha técnica

Video trailer de la película

Enlaces de descarga

Descargar Los impostores (2003) Full 1080p Latino
Descargar

dpeliculas

Aportes de DPeliculasHDmega la pass es:dpeliculashdmega.org Aportes de CinemaniaHD la pass es:cinemaniahdd.com

Películas relacionadas

  • Star Trek: En la oscuridad (2013) Full 1080p Latino

    2013
    Star Trek: En la oscuridad (2013) Full 1080p Latino

    5.0 2 h 12 min 2013

    Cuando a la tripulación de la nave Enterprise le ordenan que regrese a casa, en la Tierra se enfrentan...

    Director: Vanessa Meier

    Género: Acción

    Actores: Zoe Saldana

  • Arrow (2017) Temporada 6 WEBDL 1080p Latino

    2012
    Arrow (2017) Temporada 6 WEBDL 1080p Latino

    2.3 0h 42m 2012

    Con el futuro del equipo pendiendo de un hilo, Arrow le dio una nueva definición a la frase “explotar...

    Director: Marc Guggenheim

    Género: Acción

    Actores: Willa Holland

  • The Flash (2017) Temporada 4 WEBDL 1080p Latino

    2014
    The Flash (2017) Temporada 4 WEBDL 1080p Latino

    2.8 0h 44m 2014

    Enfrentarse a una versión remanente de uno mismo es algo que nadie debería tener que hacer, pero eso...

    Director: Geoff Johns

    Género: Drama

    Actores: Tom Cavanagh

  • Dulce venganza (2016) 1080p Latino

    2016
    Dulce venganza (2016) 1080p Latino

    2.0 1 h 34 min 2016

    Un asesino de élite llamado Frank, tras ser traicionado por unos gángsters, es enviado a una cirujana...

    Director: Walter Hill

    Género: Acción

    Actores: Zak Santiago

  • Línea mortal: Al límite (2017) 1080p Latino

    2017
    Línea mortal: Al límite (2017) 1080p Latino

    3.0 1 h 49 min 2017

    Un grupo de jóvenes estudiantes de medicina llevan a cabo un experimento que implica una muerte provocada...

    Director: Niels Arden Oplev

    Género: Ciencia ficción

    Actores: Wendy Raquel Robinson

Comentarios 1
  • Mr Friend - 30 septiembre, 2017

    Estimados amigos de CINEMANIAHD: Simplemente, quiero felicitarlos por compartir tantas buenas pelis y, además, por haber solucionado el problema con los enlaces de descarga que previamente no dejaban pasar a partir de la publicidad. Ahora es todo más sencillo. MUCHAS GRACIAS!! SIEMPRE LOS RECOMIENDO!