Advertise here

Manual de un tacaño (2016) Full 1080p Español

2.161 vistas
1 estrella2 estrellas3 estrellas4 estrellas5 estrellas (Ninguna valoración todavía)
Cargando…

Información de Manual de un tacaño (2016) Full 1080p Español

Datos de la película

  • Calidad: Full 1080p
  • Audio: Español DTS 5.1 BLURAY
  • Subtitulos: Español PGS
  • Resolución: 1920x1080p
  • Formato: MKV
  • Codec: H.264
  • Encoder: Dpelis
  • Mediainfo: Clic para Mostrar Datos Ver
  • Manual de un tacano 2016 Full 1080p.mkv
    Format                      : Matroska
    Format version              : Version 4 / Version 2
    File size                   : 2.02 GiB
    Duration                    : 1 h 30 min
    Overall bit rate            : 3 213 kb/s
    Movie name                  : DPeliculasHDMega.ORG
    Encoded date                : UTC 2017-06-25 21:49:05 / UTC 2017-06-23T21:09:36Z
    Writing application         : mkvmerge v8.9.0 ('Father Daughter') 64bit
    Writing library             : libebml v1.3.3 + libmatroska v1.4.4 / Lavf57.7.2

    Video
    ID                          : 1
    Format                      : AVC
    Format/Info                 : Advanced Video Codec
    Format profile              : High@L4.1
    Format settings, CABAC      : Yes
    Format settings, ReFrames   : 4 frames
    Codec ID                    : V_MPEG4/ISO/AVC
    Duration                    : 1 h 30 min
    Bit rate                    : 2 381 kb/s
    Width                       : 1 920 pixels
    Height                      : 1 080 pixels
    Display aspect ratio        : 16:9
    Frame rate mode             : Constant
    Frame rate                  : 24.000 FPS
    Color space                 : YUV
    Chroma subsampling          : 4:2:0
    Bit depth                   : 8 bits
    Scan type                   : Progressive
    Bits/(Pixel*Frame)          : 0.048
    Stream size                 : 1.50 GiB (74%)
    Writing library             : x264 core 148 r2708 86b7198
    Encoding settings           : cabac=1 / ref=4 / deblock=1:0:0 / analyse=0x3:0x133 / me=esa / subme=10 / psy=1 / psy_rd=1.00:0.00 / mixed_ref=1 / me_range=24 / chroma_me=1 / trellis=2 / 8x8dct=1 / cqm=0 / deadzone=21,11 / fast_pskip=1 / chroma_qp_offset=-2 / threads=28 / lookahead_threads=4 / sliced_threads=0 / nr=0 / decimate=1 / interlaced=0 / bluray_compat=0 / constrained_intra=0 / bframes=8 / b_pyramid=2 / b_adapt=2 / b_bias=0 / direct=3 / weightb=1 / open_gop=0 / weightp=2 / keyint=240 / keyint_min=24 / scenecut=40 / intra_refresh=0 / rc_lookahead=60 / rc=crf / mbtree=1 / crf=20.0 / qcomp=0.60 / qpmin=0 / qpmax=69 / qpstep=4 / vbv_maxrate=62500 / vbv_bufsize=78125 / crf_max=0.0 / nal_hrd=none / filler=0 / ip_ratio=1.40 / aq=1:1.00
    Default                     : Yes
    Forced                      : No
    Color range                 : Limited
    Color primaries             : BT.709
    Transfer characteristics    : BT.709
    Matrix coefficients         : BT.709
    Statistics Tags Issue       : mkvmerge v8.9.0 ('Father Daughter') 64bit 2017-06-25 21:49:05 / mkvmerge v8.9.0 ('Father Daughter') 64bit 2017-06-25 21:49:05 / UTC 2017-06-23T21:09:36Z
    FromStats_BitRate           : 2430732
    FromStats_Duration          : 01:30:07.375000000
    FromStats_FrameCount        : 129777
    FromStats_StreamSize        : 1642985128

    Audio
    ID                          : 2
    Format                      : DTS
    Format/Info                 : Digital Theater Systems
    Mode                        : 16
    Format settings, Endianness : Big
    Codec ID                    : A_DTS
    Duration                    : 1 h 30 min
    Bit rate mode               : Constant
    Bit rate                    : 768 kb/s
    Channel(s)                  : 6 channels
    Channel positions           : Front: L C R, Side: L R, LFE
    Sampling rate               : 48.0 kHz
    Frame rate                  : 93.750 FPS (512 spf)
    Bit depth                   : 16 bits
    Compression mode            : Lossy
    Stream size                 : 495 MiB (24%)
    Title                       : Surround
    Language                    : Spanish
    Default                     : Yes
    Forced                      : No
    Statistics Tags Issue       : mkvmerge v8.9.0 ('Father Daughter') 64bit 2017-06-25 21:49:05 / mkvmerge v8.9.0 ('Father Daughter') 64bit 2017-06-25 21:49:05 / UTC 2017-06-23T21:09:36Z
    FromStats_BitRate           : 767999
    FromStats_Duration          : 01:30:07.371000000
    FromStats_FrameCount        : 506941
    FromStats_StreamSize        : 519107584

    Text #1
    ID                          : 3
    Format                      : PGS
    Muxing mode                 : zlib
    Codec ID                    : S_HDMV/PGS
    Codec ID/Info               : Picture based subtitle format used on BDs/HD-DVDs
    Language                    : Spanish
    Default                     : No
    Forced                      : No
    Statistics Tags Issue       : mkvmerge v8.9.0 ('Father Daughter') 64bit 2017-06-25 21:49:05 / mkvmerge v8.9.0 ('Father Daughter') 64bit 2017-06-25 21:49:05 / UTC 2017-06-23T21:09:36Z
    FromStats_BitRate           : 12153
    FromStats_Duration          : 01:23:18.459000000
    FromStats_FrameCount        : 2104
    FromStats_StreamSize        : 7593594

    Text #2
    ID                          : 4
    Format                      : PGS
    Muxing mode                 : zlib
    Codec ID                    : S_HDMV/PGS
    Codec ID/Info               : Picture based subtitle format used on BDs/HD-DVDs
    Language                    : Spanish
    Default                     : No
    Forced                      : No
    Statistics Tags Issue       : mkvmerge v8.9.0 ('Father Daughter') 64bit 2017-06-25 21:49:05 / mkvmerge v8.9.0 ('Father Daughter') 64bit 2017-06-25 21:49:05 / UTC 2017-06-23T21:09:36Z
    FromStats_BitRate           : 298
    FromStats_Duration          : 01:12:48.458000000
    FromStats_FrameCount        : 42
    FromStats_StreamSize        : 163194

    Text #3
    ID                          : 5
    Format                      : UTF-8
    Codec ID                    : S_TEXT/UTF8
    Codec ID/Info               : UTF-8 Plain Text
    Language                    : Spanish
    Default                     : Yes
    Forced                      : No
    Statistics Tags Issue       : mkvmerge v8.9.0 ('Father Daughter') 64bit 2017-06-25 21:49:05 / mkvmerge v8.9.0 ('Father Daughter') 64bit 2017-06-25 21:49:05 / UTC 2017-06-23T21:09:36Z
    FromStats_BitRate           : 92
    FromStats_Duration          : 00:00:10.100000000
    FromStats_FrameCount        : 1
    FromStats_StreamSize        : 117

    Menu
    00:00:00.000                : :Chapter 1
    00:04:13.375                : :Chapter 2
    00:11:51.250                : :Chapter 3
    00:23:14.708                : :Chapter 4
    00:36:20.583                : :Chapter 5
    00:45:54.792                : :Chapter 6
    00:51:49.917                : :Chapter 7
    00:56:27.083                : :Chapter 8
    01:05:48.042                : :Chapter 9
    01:09:44.875                : :Chapter 10
    01:14:37.000                : :Chapter 11
    01:18:31.792                : :Chapter 12

  • Peso: 2.02 GB

Sinopsis

Radin! cuenta la historia de un hombre violinista que está totalmente obsesionado con los números. Se le conoce por ser un tacaño y si es posible ahorra siempre hasta el último céntimo. Su día a día parece de lo más normal, pero esa obsesión le genera numerosos problemas a la hora de ir a comprar al supermercado o, por ejemplo, cuando sale a cenar con una mujer. Un día su hija, a la que no conoce, se presenta en su casa para pasar unos días con él. El protagonista tendrá que aprender a convivir con ella le guste o no, pero… ¿será capaz de no ser tan estricto en cuanto a números se refiere?

Ficha técnica

Video trailer de la película

Enlaces de descarga

Descargar Manual de un tacaño (2016) Full 1080p Español
Descargar

dpeliculas

Aportes de DPeliculasHDmega la pass es:dpeliculashdmega.org Aportes de CinemaniaHD la pass es:cinemaniahdd.com
Guardado en : Comedia , FULL 1080p Pesadas

Películas relacionadas

  • La hora del cambio (2017) 1080p Latino

    2017
    La hora del cambio (2017) 1080p Latino

    0.0 1 h 32 min 2017

    Los vecinos del pequeño pueblo siciliano de Pietrammare viven acostumbrados al caos que conlleva “saltarse...

    Director: Valentino Picone

    Género: Comedia

    Actores: Vincenzo Ferrera

  • Vikingos Temporada 5 (2017) WEB-DL Amazon 1080p Latino

    2017
    Vikingos Temporada 5 (2017) WEB-DL Amazon 1080p Latino

    0.0 0h 44m 2017

    Sigue las aventuras de Ragnar Lothbrok, el héroe más grande de su época. La serie narra las sagas...

    Director: Michael Hirst

    Género: Action & Adventure

    Actores: Moe Dunford

  • La LEGO Ninjago pelicula (2017) Full 1080p Latino

    2017
    La LEGO Ninjago pelicula (2017) Full 1080p Latino

    4.0 1h 40m 2017

    Una tierra lejana amenazada por la oscuridad. En este lugar llamado Ninjago, las fuerzas del bien y del...

    Director: Paul Fisher

    Género: Acción

    Actores: Zach Woods

  • El libro de la selva (2016) Full 1080p Latino

    2016
    El libro de la selva (2016) Full 1080p Latino

    5.0 1h 45m 2016

    Después de ser abandonado en la selva, una familia de lobos cría al pequeño cachorro humano Mowgli....

    Director: Jon Favreau

    Género: Aventura

    Actores: Sean W. Johnson

Comentarios 2
  • slash - 07 julio, 2017

    Hola Cine, una pregunta, ¿esta película tiene otro idioma?, por los letreros que he visto parece como francés, si ese es el caso podrías agregarselo por separado, y si no trae pues has caso omiso de mi comentario.

    • dpelis

      Administrador
      - 12 julio, 2017

      el BD es espana, pero no recuerdo cual mas traia, seguro frances