Advertise here

Marvel’s The Punisher (2017) WEB-DL 1080p Latino

5.357 vistas
1 estrella2 estrellas3 estrellas4 estrellas5 estrellas (3 votos, promedio: 5,00 de 5)
Cargando…

Información de Marvel’s The Punisher (2017) WEB-DL 1080p Latino

Datos de la película

  • Calidad: WEBDL
  • Audio: Español Latino AC3 5.1 Netflix - Ingles AC3 5.1 Netflix
  • Subtitulos: Español Latino SRT
  • Resolución: 1920X1080
  • Formato: MKV
  • Codec: H.264
  • Encoder: Dpelis
  • Mediainfo: Clic para Mostrar Datos Ver
  • Format                                   : Matroska
    Format version                           : Version 4 / Version 2
    File size                                : 1.43 GiB
    Duration                                 : 51 min 23 s
    Overall bit rate mode                    : Variable
    Overall bit rate                         : 3 993 kb/s
    Movie name                               : dpeliculashdmega.org
    Encoded date                             : UTC 2017-11-17 20:27:30
    Writing application                      : mkvmerge v15.0.0 ('Duel with the Devil') 64-bit
    Writing library                          : libebml v1.3.5 + libmatroska v1.4.5

    Video
    ID                                       : 1
    Format                                   : AVC
    Format/Info                              : Advanced Video Codec
    Format profile                           : Main@L4
    Format settings                          : CABAC / 3 Ref Frames
    Format settings, CABAC                   : Yes
    Format settings, RefFrames               : 3 frames
    Codec ID                                 : V_MPEG4/ISO/AVC
    Duration                                 : 51 min 23 s
    Bit rate mode                            : Variable
    Bit rate                                 : 3 320 kb/s
    Maximum bit rate                         : 4 980 kb/s
    Width                                    : 1 920 pixels
    Height                                   : 1 080 pixels
    Display aspect ratio                     : 16:9
    Frame rate mode                          : Constant
    Frame rate                               : 23.976 (24000/1001) FPS
    Color space                              : YUV
    Chroma subsampling                       : 4:2:0
    Bit depth                                : 8 bits
    Scan type                                : Progressive
    Bits/(Pixel*Frame)                       : 0.067
    Stream size                              : 1.16 GiB (81%)
    Title                                    : Marvel's The Punisher (2017) Capitulo 1 -3 AM- WEB-DL 1080p Latino
    Writing library                          : x264 core 118
    Encoding settings                        : cabac=1 / ref=3 / deblock=1:0:0 / analyse=0x1:0x111 / me=umh / subme=10 / psy=1 / psy_rd=1.00:0.00 / mixed_ref=1 / me_range=24 / chroma_me=1 / trellis=2 / 8x8dct=0 / cqm=0 / deadzone=21,11 / fast_pskip=1 / chroma_qp_offset=-2 / threads=8 / sliced_threads=0 / nr=0 / decimate=1 / interlaced=0 / bluray_compat=0 / constrained_intra=0 / bframes=2 / b_pyramid=0 / b_adapt=2 / b_bias=0 / direct=3 / weightb=1 / open_gop=0 / weightp=2 / keyint=48 / keyint_min=25 / scenecut=0 / intra_refresh=0 / rc_lookahead=0 / rc=2pass / mbtree=1 / bitrate=3320 / ratetol=1.0 / qcomp=0.50 / qpmin=6 / qpmax=51 / qpstep=4 / cplxblur=20.0 / qblur=0.5 / vbv_maxrate=4980 / vbv_bufsize=6640 / nal_hrd=vbr / ip_ratio=1.40 / aq=1:1.00
    Language                                 : English
    Default                                  : Yes
    Forced                                   : No

    Audio #1
    ID                                       : 2
    Format                                   : AC-3
    Format/Info                              : Audio Coding 3
    Format settings, Endianness              : Big
    Codec ID                                 : A_AC3
    Duration                                 : 51 min 23 s
    Bit rate mode                            : Constant
    Bit rate                                 : 384 kb/s
    Channel(s)                               : 6 channels
    Channel positions                        : Front: L C R, Side: L R, LFE
    Sampling rate                            : 48.0 kHz
    Frame rate                               : 31.250 FPS (1536 SPF)
    Bit depth                                : 16 bits
    Compression mode                         : Lossy
    Stream size                              : 141 MiB (10%)
    Title                                    : Latino-AC3
    Language                                 : Spanish
    Service kind                             : Complete Main
    Default                                  : Yes
    Forced                                   : No

    Audio #2
    ID                                       : 3
    Format                                   : AC-3
    Format/Info                              : Audio Coding 3
    Format settings, Endianness              : Big
    Codec ID                                 : A_AC3
    Duration                                 : 51 min 23 s
    Bit rate mode                            : Constant
    Bit rate                                 : 384 kb/s
    Channel(s)                               : 6 channels
    Channel positions                        : Front: L C R, Side: L R, LFE
    Sampling rate                            : 48.0 kHz
    Frame rate                               : 31.250 FPS (1536 SPF)
    Bit depth                                : 16 bits
    Compression mode                         : Lossy
    Stream size                              : 141 MiB (10%)
    Title                                    : Ingles-AC3
    Language                                 : English
    Service kind                             : Complete Main
    Default                                  : No
    Forced                                   : No

    Text #1
    ID                                       : 4
    Format                                   : UTF-8
    Codec ID                                 : S_TEXT/UTF8
    Codec ID/Info                            : UTF-8 Plain Text
    Duration                                 : 49 min 8 s
    Bit rate                                 : 1 b/s
    Count of elements                        : 16
    Stream size                              : 425 Bytes (0%)
    Title                                    : Forzados
    Language                                 : Spanish
    Default                                  : Yes
    Forced                                   : No

    Text #2
    ID                                       : 5
    Format                                   : UTF-8
    Codec ID                                 : S_TEXT/UTF8
    Codec ID/Info                            : UTF-8 Plain Text
    Duration                                 : 50 min 0 s
    Bit rate                                 : 50 b/s
    Count of elements                        : 582
    Stream size                              : 18.7 KiB (0%)
    Title                                    : Completos
    Language                                 : Spanish
    Default                                  : No
    Forced                                   : No

    Text #3
    ID                                       : 6
    Format                                   : UTF-8
    Codec ID                                 : S_TEXT/UTF8
    Codec ID/Info                            : UTF-8 Plain Text
    Duration                                 : 21 s 439 ms
    Bit rate                                 : 83 b/s
    Count of elements                        : 6
    Stream size                              : 224 Bytes (0%)
    Title                                    : Forzados
    Language                                 : English
    Default                                  : No
    Forced                                   : Yes

    Text #4
    ID                                       : 7
    Format                                   : UTF-8
    Codec ID                                 : S_TEXT/UTF8
    Codec ID/Info                            : UTF-8 Plain Text
    Duration                                 : 49 min 1 s
    Bit rate                                 : 69 b/s
    Count of elements                        : 730
    Stream size                              : 24.9 KiB (0%)
    Title                                    : Completos
    Language                                 : English
    Default                                  : No
    Forced                                   : No

  • Peso: Aproximadamente 1.5GB X Capitulo

Sinopsis

Frank Castle, conocido por las calles de Nueva York como ‘el Castigador’, busca venganza contra los responsables de la muerte de su familia y, por el camino, destapa una conspiración que va mucho más allá de su vendetta personal. Spin-off de la serie “Daredevil”.

Ficha técnica

  • Titulo original: Marvel's The Punisher
  • Fecha de lanzamiento: 17-11-2017 (US)
  • Director: Steve Lightfoot
  • Género: Crimen, Drama, Series
  • Puntuación: 5.0 3 votos
  • Duración:
    51 min

Video trailer de la película

Enlaces de descarga

Descargar Marvel’s The Punisher (2017) WEB-DL 1080p Latino
Descargar

dpeliculas

Aportes de DPeliculasHDmega la pass es:dpeliculashdmega.org Aportes de CinemaniaHD la pass es:cinemaniahdd.com
Guardado en : Crimen , Drama , Series

Películas relacionadas

  • Dulce venganza (2016) 1080p Latino

    2016
    Dulce venganza (2016) 1080p Latino

    2.0 1 h 34 min 2016

    Un asesino de élite llamado Frank, tras ser traicionado por unos gángsters, es enviado a una cirujana...

    Director: Walter Hill

    Género: Acción

    Actores: Zak Santiago

  • Línea mortal: Al límite (2017) 1080p Latino

    2017
    Línea mortal: Al límite (2017) 1080p Latino

    0.0 1 h 49 min 2017

    Un grupo de jóvenes estudiantes de medicina llevan a cabo un experimento que implica una muerte provocada...

    Director: Niels Arden Oplev

    Género: Ciencia ficción

    Actores: Wendy Raquel Robinson

  • Un reino unido (2016) 1080p Latino

    2016
    Un reino unido (2016) 1080p Latino

    0.0 1 h 50 min 2016

    Biopic sobre el Príncipe Seretse Khama, el rey de Botsuana, que al contraer matrimonio en 1948 con Ruth...

    Director: Amma Asante

    Género: Drama

    Actores: Zackary Momoh

  • The Walking Dead (2017) Temporada 8 WEB-DL 1080p Latino

    2017
    The Walking Dead (2017) Temporada 8 WEB-DL 1080p Latino

    5.0 0h 42m 2017

    Rick, Maggie y Ezekiel reúnen a sus comunidades para derrotar a Negan y los salvadores. Gregory intenta...

    Director: Frank Darabont

    Género: Action & Adventure

    Actores: Norman Reedus

  • Vikingos Temporada 5 (2017) WEB-DL Amazon 1080p Latino

    2017
    Vikingos Temporada 5 (2017) WEB-DL Amazon 1080p Latino

    0.0 0h 44m 2017

    Sigue las aventuras de Ragnar Lothbrok, el héroe más grande de su época. La serie narra las sagas...

    Director: Michael Hirst

    Género: Action & Adventure

    Actores: Moe Dunford

Comentarios 9
  • Neymar - 07 diciembre, 2017

    subelas a MEDIAFIRE es por lejos el mejor para mi

    • Dpelis2

      Autor
      - 07 diciembre, 2017

      No es posible.

  • fernando maldonado - 05 diciembre, 2017

    cual es la contraseña para descomprimir es que no me funciona ninguna de las dos

    • Dpelis2

      Autor
      - 05 diciembre, 2017

      la Contraseña es dpeliculashdmega.org

  • Angelo - 21 noviembre, 2017

    Excelente muchas gracias 🙂 , cuando subirán la 4ta temporada de Agentes de SHIELD ? ya que la 5ta comienza a estrenarse este 1 de Diciembre. Saludos

    • dpelis

      Administrador
      - 22 noviembre, 2017

      mas adelante estimado

  • Alex - 18 noviembre, 2017

    Excelente aporte, lo estaba buscando :D, solo una duda, ¿porque pesan 5GB cada archivo si los capítulos indican pesan 1.5GB? y ¿cuando estarán en MEGA? Saludos.

    • Dpelis2 pelis2

      Autor
      - 18 noviembre, 2017

      la serie en total pesa 21GB que esta dividido en partes de 5GB donde esta la carpeta que contiene los 13 episodios.
      Mega estara en 1 hora mas, Saludos

      • Alex - 18 noviembre, 2017

        Excelente, gracias 😀 a descargarla