Advertise here

Muy duro de matar (2016) 1080p Latino

1.206 vistas
1 estrella2 estrellas3 estrellas4 estrellas5 estrellas (1 votos, promedio: 1,00 de 5)
Cargando…

Información de Muy duro de matar (2016) 1080p Latino

Datos de la película

  • Calidad: 1080p
  • Audio: Se especifica abajo de la Sinopsis
  • Subtitulos: Español Latino SRT - Ingles SRT
  • Resolución: 1920x1080p
  • Formato: MKV
  • Codec: H.264
  • Encoder: Dpelis
  • Mediainfo: Clic para Mostrar Datos Ver
  • End.of.a.gun.2016.bluray.1080p.LATINO.mkv
    Format                      : Matroska
    Format version              : Version 4 / Version 2
    File size                   : 2.45 GiB
    Duration                    : 1 h 26 min
    Overall bit rate            : 4 035 kb/s
    Movie name                  : DPeliculasHDMega.ORG
    Encoded date                : UTC 2017-06-06 11:17:48 / UTC 2017-06-06T02:21:58Z
    Writing application         : mkvmerge v10.0.0 ('To Drown In You') 64bit
    Writing library             : libebml v1.3.4 + libmatroska v1.4.5 / Lavf57.7.2

    Video
    ID                          : 1
    Format                      : AVC
    Format/Info                 : Advanced Video Codec
    Format profile              : High@L4.1
    Format settings, CABAC      : Yes
    Format settings, ReFrames   : 4 frames
    Codec ID                    : V_MPEG4/ISO/AVC
    Duration                    : 1 h 26 min
    Bit rate                    : 3 500 kb/s
    Width                       : 1 920 pixels
    Height                      : 1 080 pixels
    Display aspect ratio        : 16:9
    Frame rate mode             : Constant
    Frame rate                  : 23.976 (24000/1001) FPS
    Color space                 : YUV
    Chroma subsampling          : 4:2:0
    Bit depth                   : 8 bits
    Scan type                   : Progressive
    Bits/(Pixel*Frame)          : 0.070
    Stream size                 : 2.05 GiB (84%)
    Writing library             : x264 core 148 r2708 86b7198
    Encoding settings           : cabac=1 / ref=3 / deblock=1:0:0 / analyse=0x3:0x113 / me=hex / subme=7 / psy=1 / psy_rd=1.00:0.00 / mixed_ref=1 / me_range=16 / chroma_me=1 / trellis=1 / 8x8dct=1 / cqm=0 / deadzone=21,11 / fast_pskip=1 / chroma_qp_offset=-2 / threads=34 / lookahead_threads=5 / sliced_threads=0 / nr=0 / decimate=1 / interlaced=0 / bluray_compat=0 / constrained_intra=0 / bframes=3 / b_pyramid=2 / b_adapt=1 / b_bias=0 / direct=1 / weightb=1 / open_gop=0 / weightp=2 / keyint=240 / keyint_min=24 / scenecut=40 / intra_refresh=0 / rc_lookahead=40 / rc=abr / mbtree=1 / bitrate=3500 / ratetol=1.0 / qcomp=0.60 / qpmin=0 / qpmax=69 / qpstep=4 / vbv_maxrate=62500 / vbv_bufsize=78125 / nal_hrd=none / filler=0 / ip_ratio=1.40 / aq=1:1.00
    Default                     : Yes
    Forced                      : No
    Color range                 : Limited
    Color primaries             : BT.709
    Transfer characteristics    : BT.709
    Matrix coefficients         : BT.709
    Statistics Tags Issue       : mkvmerge v10.0.0 ('To Drown In You') 64bit 2017-06-06 11:17:48 / mkvmerge v10.0.0 ('To Drown In You') 64bit 2017-06-06 11:17:48 / UTC 2017-06-06T02:21:58Z
    FromStats_BitRate           : 3458495
    FromStats_Duration          : 01:26:49.246000000
    FromStats_FrameCount        : 124897
    FromStats_StreamSize        : 2252019437

    Audio #1
    ID                          : 2
    Format                      : AC-3
    Format/Info                 : Audio Coding 3
    Format settings, Endianness : Big
    Codec ID                    : A_AC3
    Duration                    : 1 h 26 min
    Bit rate mode               : Constant
    Bit rate                    : 192 kb/s
    Channel(s)                  : 2 channels
    Channel positions           : Front: L R
    Sampling rate               : 48.0 kHz
    Frame rate                  : 31.250 FPS (1536 spf)
    Bit depth                   : 16 bits
    Compression mode            : Lossy
    Delay relative to video     : -5 ms
    Stream size                 : 119 MiB (5%)
    Language                    : Spanish
    Service kind                : Complete Main
    Default                     : Yes
    Forced                      : No
    Statistics Tags Issue       : mkvmerge v10.0.0 ('To Drown In You') 64bit 2017-06-06 11:17:48 / mkvmerge v10.0.0 ('To Drown In You') 64bit 2017-06-06 11:17:48 / UTC 2017-06-06T02:21:58Z
    FromStats_BitRate           : 192000
    FromStats_Duration          : 01:26:52.064000000
    FromStats_FrameCount        : 162877
    FromStats_StreamSize        : 125089536

    Audio #2
    ID                          : 3
    Format                      : AC-3
    Format/Info                 : Audio Coding 3
    Format settings, Endianness : Big
    Codec ID                    : A_AC3
    Duration                    : 1 h 26 min
    Bit rate mode               : Constant
    Bit rate                    : 384 kb/s
    Channel(s)                  : 6 channels
    Channel positions           : Front: L C R, Side: L R, LFE
    Sampling rate               : 48.0 kHz
    Frame rate                  : 31.250 FPS (1536 spf)
    Bit depth                   : 16 bits
    Compression mode            : Lossy
    Delay relative to video     : -5 ms
    Stream size                 : 239 MiB (10%)
    Title                       : Surround
    Language                    : English
    Service kind                : Complete Main
    Default                     : No
    Forced                      : No
    Statistics Tags Issue       : mkvmerge v10.0.0 ('To Drown In You') 64bit 2017-06-06 11:17:48 / mkvmerge v10.0.0 ('To Drown In You') 64bit 2017-06-06 11:17:48 / UTC 2017-06-06T02:21:58Z
    FromStats_BitRate           : 384000
    FromStats_Duration          : 01:26:49.216000000
    FromStats_FrameCount        : 162788
    FromStats_StreamSize        : 250042368

    Text #1
    ID                          : 4
    Format                      : UTF-8
    Codec ID                    : S_TEXT/UTF8
    Codec ID/Info               : UTF-8 Plain Text
    Language                    : Spanish
    Default                     : No
    Forced                      : No
    Statistics Tags Issue       : mkvmerge v10.0.0 ('To Drown In You') 64bit 2017-06-06 11:17:48 / mkvmerge v10.0.0 ('To Drown In You') 64bit 2017-06-06 11:17:48 / UTC 2017-06-06T02:21:58Z
    FromStats_BitRate           : 46
    FromStats_Duration          : 01:22:52.051000000
    FromStats_FrameCount        : 877
    FromStats_StreamSize        : 28791

    Text #2
    ID                          : 5
    Format                      : UTF-8
    Codec ID                    : S_TEXT/UTF8
    Codec ID/Info               : UTF-8 Plain Text
    Language                    : English
    Default                     : No
    Forced                      : No
    Statistics Tags Issue       : mkvmerge v10.0.0 ('To Drown In You') 64bit 2017-06-06 11:17:48 / mkvmerge v10.0.0 ('To Drown In You') 64bit 2017-06-06 11:17:48 / UTC 2017-06-06T02:21:58Z
    FromStats_BitRate           : 46
    FromStats_Duration          : 01:22:52.892000000
    FromStats_FrameCount        : 879
    FromStats_StreamSize        : 28646

    Text #3
    ID                          : 6
    Format                      : UTF-8
    Codec ID                    : S_TEXT/UTF8
    Codec ID/Info               : UTF-8 Plain Text
    Language                    : Spanish
    Default                     : Yes
    Forced                      : No
    Statistics Tags Issue       : mkvmerge v10.0.0 ('To Drown In You') 64bit 2017-06-06 11:17:48 / mkvmerge v10.0.0 ('To Drown In You') 64bit 2017-06-06 11:17:48 / UTC 2017-06-06T02:21:58Z
    FromStats_BitRate           : 45
    FromStats_Duration          : 00:00:20.100000000
    FromStats_FrameCount        : 1
    FromStats_StreamSize        : 115

    Menu
    00:00:00.000                : :00:00:00.000
    00:04:45.452                : :00:04:45.452
    00:10:20.703                : :00:10:20.703
    00:14:54.644                : :00:14:54.644
    00:19:59.699                : :00:19:59.698
    00:26:02.478                : :00:26:02.478
    00:31:52.702                : :00:31:52.702
    00:37:40.717                : :00:37:40.675
    00:42:00.018                : :00:42:00.017
    00:46:22.280                : :00:46:22.279
    00:51:52.276                : :00:51:52.276
    00:56:36.351                : :00:56:36.351
    01:01:37.861                : :01:01:37.861
    01:05:14.494                : :01:05:14.494
    01:09:15.026                : :01:09:14.859
    01:21:33.013                : :01:21:33.013

  • Peso: 2.45 GB

Sinopsis

Decker, un ex-agente de la DEA (Administración para el Control de Drogas) ha conseguido incrementar su paga de jubilado como vigilante de seguridad en un centro comercial. Aunque su tarea es la de “informar y observar”, no puede evitar involucrarse al ver como en la zona de aparcamiento un hombre golpea a su novia. El agresor resulta muerto y Decker, además de perder su empleo, puede enfrentarse a una larga condena. Lisa, la mujer que ha salvado, le propone robar del depósito municipal el coche de su novio fallecido. En el interior del vehículo hay escondidos dos millones de dólares destinados a un poderoso narcotraficante que no está dispuesto a perder su dinero. El peligroso criminal inicia una implacable cacería sin conocer la verdadera naturaleza de su presa.

Audio

Espanol Latino  AC3  5.1 – Inglés AC3 5.1 

Ficha técnica

  • Titulo original: End of a Gun
  • Fecha de lanzamiento: 23-09-2016 (United States of America)
  • Director: Keoni Waxman
  • Género: Acción, Crimen, Suspense
  • Puntuación: 1.0 1 votos
  • Duración:
    1h 30m

Imágenes, Capturas de la película

Imágenes, Capturas de la película

Video trailer de la película

Enlaces de descarga

Descargar Muy duro de matar (2016) 1080p Latino
Descargar

dpeliculas

Aportes de DPeliculasHDmega la pass es:dpeliculashdmega.org Aportes de CinemaniaHD la pass es:cinemaniahdd.com
Guardado en : Acción , Crimen , Suspense

Películas relacionadas

  • Barry Seal: solo en América (2017) 1080p Latino

    2017
    Barry Seal: solo en América (2017) 1080p Latino

    0.0 1 h 54 min 2017

    Basada en la vida real de Barry Seal, un expiloto que se convirtió en un importante narcotraficante...

    Director: Nick DiRosa

    Género: Acción

    Actores: William Mark McCullough

  • Star Trek: En la oscuridad (2013) Full 1080p Latino

    2013
    Star Trek: En la oscuridad (2013) Full 1080p Latino

    5.0 2 h 12 min 2013

    Cuando a la tripulación de la nave Enterprise le ordenan que regrese a casa, en la Tierra se enfrentan...

    Director: Vanessa Meier

    Género: Acción

    Actores: Zoe Saldana

  • Arrow (2017) Temporada 6 WEBDL 1080p Latino

    2012
    Arrow (2017) Temporada 6 WEBDL 1080p Latino

    2.3 0h 42m 2012

    Con el futuro del equipo pendiendo de un hilo, Arrow le dio una nueva definición a la frase “explotar...

    Director: Marc Guggenheim

    Género: Acción

    Actores: Willa Holland

  • Dulce venganza (2016) 1080p Latino

    2016
    Dulce venganza (2016) 1080p Latino

    2.5 1 h 34 min 2016

    Un asesino de élite llamado Frank, tras ser traicionado por unos gángsters, es enviado a una cirujana...

    Director: Walter Hill

    Género: Acción

    Actores: Zak Santiago

Comentarios 0