Advertise here

No respires (2016) Full 1080p Latino

542 vistas
1 estrella2 estrellas3 estrellas4 estrellas5 estrellas (1 votos, promedio: 5,00 de 5)
Cargando…

Información de No respires (2016) Full 1080p Latino

Datos de la película

  • Calidad: Full 1080p
  • Audio: Español Latino AC3 5.1 BLURAY - Ingles DTS 5.1 BLURAY
  • Subtitulos: Español Latino PGS - Ingles PGS
  • Resolución: 1920X1080p
  • Formato: MKV
  • Codec: H.264
  • Encoder: Dracarys
  • Mediainfo: Clic para Mostrar Datos Ver
  • Format                                   : Matroska
    Format version                           : Version 4 / Version 2
    File size                                : 3.27 GiB
    Duration                                 : 1 h 28 min
    Overall bit rate                         : 5 288 kb/s
    Movie name                               : CinemaniaHDD.com
    Encoded date                             : UTC 2017-12-08 00:52:57 / UTC 2017-12-06T16:31:02Z
    Writing application                      : mkvmerge v15.0.0 ('Duel with the Devil') 64-bit
    Writing library                          : libebml v1.3.5 + libmatroska v1.4.5 / Lavf57.7.2

    Video
    ID                                       : 1
    Format                                   : AVC
    Format/Info                              : Advanced Video Codec
    Format profile                           : High@L4.1
    Format settings                          : CABAC / 4 Ref Frames
    Format settings, CABAC                   : Yes
    Format settings, RefFrames               : 4 frames
    Codec ID                                 : V_MPEG4/ISO/AVC
    Duration                                 : 1 h 28 min
    Bit rate                                 : 3 034 kb/s
    Width                                    : 1 920 pixels
    Height                                   : 1 080 pixels
    Display aspect ratio                     : 16:9
    Frame rate mode                          : Constant
    Frame rate                               : 23.976 (24000/1001) FPS
    Color space                              : YUV
    Chroma subsampling                       : 4:2:0
    Bit depth                                : 8 bits
    Scan type                                : Progressive
    Bits/(Pixel*Frame)                       : 0.061
    Stream size                              : 1.88 GiB (57%)
    Title                                    : No respires (2016) Full 1080p Latino
    Writing library                          : x264 core 148 r2708 86b7198
    Encoding settings                        : cabac=1 / ref=4 / deblock=1:0:0 / analyse=0x3:0x133 / me=esa / subme=10 / psy=1 / psy_rd=1.00:0.00 / mixed_ref=1 / me_range=24 / chroma_me=1 / trellis=2 / 8x8dct=1 / cqm=0 / deadzone=21,11 / fast_pskip=1 / chroma_qp_offset=-2 / threads=34 / lookahead_threads=5 / sliced_threads=0 / nr=0 / decimate=1 / interlaced=0 / bluray_compat=0 / constrained_intra=0 / bframes=8 / b_pyramid=2 / b_adapt=2 / b_bias=0 / direct=3 / weightb=1 / open_gop=0 / weightp=2 / keyint=240 / keyint_min=24 / scenecut=40 / intra_refresh=0 / rc_lookahead=60 / rc=crf / mbtree=1 / crf=20.0 / qcomp=0.60 / qpmin=0 / qpmax=69 / qpstep=4 / vbv_maxrate=62500 / vbv_bufsize=78125 / crf_max=0.0 / nal_hrd=none / filler=0 / ip_ratio=1.40 / aq=1:1.00
    Language                                 : English
    Default                                  : Yes
    Forced                                   : No
    Color range                              : Limited
    Color primaries                          : BT.709
    Transfer characteristics                 : BT.709
    Matrix coefficients                      : BT.709
    Statistics Tags Issue                    : mkvmerge v15.0.0 ('Duel with the Devil') 64-bit 2017-12-08 00:52:57 / mkvmerge v15.0.0 ('Duel with the Devil') 64-bit 2017-12-08 00:52:57 / UTC 2017-12-06T16:31:02Z
    FromStats_BitRate                        : 3121833
    FromStats_Duration                       : 01:28:32.266000000
    FromStats_FrameCount                     : 127367
    FromStats_StreamSize                     : 2073001049

    Audio #1
    ID                                       : 2
    Format                                   : AC-3
    Format/Info                              : Audio Coding 3
    Format settings, Endianness              : Big
    Codec ID                                 : A_AC3
    Duration                                 : 1 h 28 min
    Bit rate mode                            : Constant
    Bit rate                                 : 640 kb/s
    Channel(s)                               : 6 channels
    Channel positions                        : Front: L C R, Side: L R, LFE
    Sampling rate                            : 48.0 kHz
    Frame rate                               : 31.250 FPS (1536 SPF)
    Bit depth                                : 16 bits
    Compression mode                         : Lossy
    Stream size                              : 405 MiB (12%)
    Title                                    : AC3-Bluray
    Language                                 : Spanish
    Service kind                             : Complete Main
    Default                                  : Yes
    Forced                                   : No
    Statistics Tags Issue                    : mkvmerge v15.0.0 ('Duel with the Devil') 64-bit 2017-12-08 00:52:57 / mkvmerge v15.0.0 ('Duel with the Devil') 64-bit 2017-12-08 00:52:57 / UTC 2017-12-06T16:31:02Z
    FromStats_BitRate                        : 640000
    FromStats_Duration                       : 01:28:32.320000000
    FromStats_FrameCount                     : 166010
    FromStats_StreamSize                     : 424985600

    Audio #2
    ID                                       : 3
    Format                                   : DTS
    Format/Info                              : Digital Theater Systems
    Mode                                     : 16
    Format settings, Endianness              : Big
    Codec ID                                 : A_DTS
    Duration                                 : 1 h 28 min
    Bit rate mode                            : Constant
    Bit rate                                 : 1 509 kb/s
    Channel(s)                               : 6 channels
    Channel positions                        : Front: L C R, Side: L R, LFE
    Sampling rate                            : 48.0 kHz
    Frame rate                               : 93.750 FPS (512 SPF)
    Bit depth                                : 24 bits
    Compression mode                         : Lossy
    Stream size                              : 956 MiB (29%)
    Title                                    : DTS-Bluray
    Language                                 : English
    Default                                  : No
    Forced                                   : No
    Statistics Tags Issue                    : mkvmerge v15.0.0 ('Duel with the Devil') 64-bit 2017-12-08 00:52:57 / mkvmerge v15.0.0 ('Duel with the Devil') 64-bit 2017-12-08 00:52:57 / UTC 2017-12-06T16:31:02Z
    FromStats_BitRate                        : 1508999
    FromStats_Duration                       : 01:28:32.299000000
    FromStats_FrameCount                     : 498028
    FromStats_StreamSize                     : 1002032336

    Text #1
    ID                                       : 4
    Format                                   : PGS
    Muxing mode                              : zlib
    Codec ID                                 : S_HDMV/PGS
    Codec ID/Info                            : Picture based subtitle format used on BDs/HD-DVDs
    Language                                 : Spanish
    Default                                  : No
    Forced                                   : No
    Statistics Tags Issue                    : mkvmerge v15.0.0 ('Duel with the Devil') 64-bit 2017-12-08 00:52:57 / mkvmerge v15.0.0 ('Duel with the Devil') 64-bit 2017-12-08 00:52:57 / UTC 2017-12-06T16:31:02Z
    FromStats_BitRate                        : 11704
    FromStats_Duration                       : 01:26:22.302000000
    FromStats_FrameCount                     : 1006
    FromStats_StreamSize                     : 7581777

    Text #2
    ID                                       : 5
    Format                                   : PGS
    Muxing mode                              : zlib
    Codec ID                                 : S_HDMV/PGS
    Codec ID/Info                            : Picture based subtitle format used on BDs/HD-DVDs
    Language                                 : English
    Default                                  : No
    Forced                                   : No
    Statistics Tags Issue                    : mkvmerge v15.0.0 ('Duel with the Devil') 64-bit 2017-12-08 00:52:57 / mkvmerge v15.0.0 ('Duel with the Devil') 64-bit 2017-12-08 00:52:57 / UTC 2017-12-06T16:31:02Z
    FromStats_BitRate                        : 21747
    FromStats_Duration                       : 01:25:45.891000000
    FromStats_FrameCount                     : 2152
    FromStats_StreamSize                     : 13988943

    Menu
    00:00:00.000                             : :Chapter 1
    00:03:33.463                             : :Chapter 2
    00:08:02.732                             : :Chapter 3
    00:14:05.178                             : :Chapter 4
    00:19:45.267                             : :Chapter 5
    00:24:50.030                             : :Chapter 6
    00:28:29.499                             : :Chapter 7
    00:33:33.094                             : :Chapter 8
    00:36:51.418                             : :Chapter 9
    00:41:04.295                             : :Chapter 10
    00:45:48.246                             : :Chapter 11
    00:51:52.401                             : :Chapter 12
    00:57:36.662                             : :Chapter 13
    01:03:46.239                             : :Chapter 14
    01:13:41.918                             : :Chapter 15
    01:21:54.701                             : :Chapter 16

  • Peso: 3.27 GiB

Sinopsis

Unos jóvenes ladrones creen haber encontrado la oportunidad de cometer el robo perfecto. Su objetivo será un ciego solitario, poseedor de millones de dólares ocultos. Pero tan pronto como entran en su casa serán conscientes de su error, pues se encontrarán atrapados y luchando por sobrevivir contra un psicópata con sus propios y temibles secretos.

Ficha técnica

Video trailer de la película

Enlaces de descarga

Descargar No respires (2016) Full 1080p Latino
Descargar

dpeliculas

Aportes de DPeliculasHDmega la pass es:dpeliculashdmega.org Aportes de CinemaniaHD la pass es:cinemaniahdd.com

Películas relacionadas

  • Línea mortal: al límite (2017) Full 1080p Latino

    2017
    Línea mortal: al límite (2017) Full 1080p Latino

    0.0 1 h 49 min 2017

    Remake del clasico de los 90 Línea mortal (Flatliners). Un grupo de jóvenes estudiantes de medicina...

    Director: Niels Arden Oplev

    Género: Ciencia ficción

    Actores: Wendy Raquel Robinson

  • La montaña entre nosotros (2017) Full 1080p Latino

    2017
    La montaña entre nosotros (2017) Full 1080p Latino

    5.0 1 h 51 min 2017

    Abandonados a su suerte después de un trágico accidente aéreo, Ben Bass (Idris Elba) y Alex Martin...

    Director: Tim Macarthur

    Género: Aventura

    Actores: Waleed Zuaiter

  • El francotirador (1978) Full 1080p Latino

    1978
    El francotirador (1978) Full 1080p Latino

    0.0 3h 2m 1978

    Descargar Pelicula El francotirador 1978 hd latino Unos amigos de un pequeño pueblo industrial acuden...

    Director: Michael Cimino

    Género: Drama

    Actores: Vitoon Winwitoon

  • Star Trek: En la oscuridad (2013) Full 1080p Latino

    2013
    Star Trek: En la oscuridad (2013) Full 1080p Latino

    5.0 2 h 12 min 2013

    Cuando a la tripulación de la nave Enterprise le ordenan que regrese a casa, en la Tierra se enfrentan...

    Director: Vanessa Meier

    Género: Acción

    Actores: Zoe Saldana

Comentarios 0