Advertise here

Nobody SpeakTrials of the Free Press (2017) Webdl 1080p Latino

516 vistas
1 estrella2 estrellas3 estrellas4 estrellas5 estrellas (Ninguna valoración todavía)
Cargando…

Información de Nobody SpeakTrials of the Free Press (2017) Webdl 1080p Latino

Datos de la película

  • Calidad: WEBDL
  • Audio: Español Latino AC3 5.1 Netflix - Ingles AC3 5.1 iTunes
  • Subtitulos: Español Latino SRT - Ingles SRT
  • Resolución: 1920x1080p
  • Formato: MKV
  • Codec: H.264
  • Encoder: Dpelis
  • Mediainfo: Clic para Mostrar Datos Ver
  • Nobody.Speak.Trials.of.the.Free.Press.2017.1080p.WEBRipLatino.mkv
    Format                      : Matroska
    Format version              : Version 4 / Version 2
    File size                   : 3.98 GiB
    Duration                    : 1 h 35 min
    Overall bit rate            : 5 948 kb/s
    Movie name                  : DPeliculasHDMega.ORG
    Encoded date                : UTC 2017-06-25 13:23:01
    Writing application         : mkvmerge v10.0.0 ('To Drown In You') 64bit
    Writing library             : libebml v1.3.4 + libmatroska v1.4.5
    Cover                       : Yes
    Attachments                 : cover.jpg / cover_land.jpg / small_cover.jpg / small_cover_land.jpg

    Video
    ID                          : 1
    Format                      : AVC
    Format/Info                 : Advanced Video Codec
    Format profile              : High@L4
    Format settings, CABAC      : Yes
    Format settings, ReFrames   : 3 frames
    Codec ID                    : V_MPEG4/ISO/AVC
    Duration                    : 1 h 35 min
    Bit rate                    : 5 114 kb/s
    Width                       : 1 920 pixels
    Height                      : 1 080 pixels
    Display aspect ratio        : 16:9
    Frame rate mode             : Constant
    Frame rate                  : 23.976 (24000/1001) FPS
    Color space                 : YUV
    Chroma subsampling          : 4:2:0
    Bit depth                   : 8 bits
    Scan type                   : Progressive
    Bits/(Pixel*Frame)          : 0.103
    Stream size                 : 3.42 GiB (86%)
    Default                     : Yes
    Forced                      : No

    Audio #1
    ID                          : 2
    Format                      : AC-3
    Format/Info                 : Audio Coding 3
    Format settings, Endianness : Big
    Codec ID                    : A_AC3
    Duration                    : 1 h 35 min
    Bit rate mode               : Constant
    Bit rate                    : 448 kb/s
    Channel(s)                  : 6 channels
    Channel positions           : Front: L C R, Side: L R, LFE
    Sampling rate               : 48.0 kHz
    Frame rate                  : 31.250 FPS (1536 spf)
    Bit depth                   : 16 bits
    Compression mode            : Lossy
    Stream size                 : 307 MiB (8%)
    Language                    : Spanish
    Service kind                : Complete Main
    Default                     : Yes
    Forced                      : No

    Audio #2
    ID                          : 3
    Format                      : AC-3
    Format/Info                 : Audio Coding 3
    Format settings, Endianness : Big
    Codec ID                    : A_AC3
    Duration                    : 1 h 35 min
    Bit rate mode               : Constant
    Bit rate                    : 384 kb/s
    Channel(s)                  : 6 channels
    Channel positions           : Front: L C R, Side: L R, LFE
    Sampling rate               : 48.0 kHz
    Frame rate                  : 31.250 FPS (1536 spf)
    Bit depth                   : 16 bits
    Compression mode            : Lossy
    Stream size                 : 263 MiB (6%)
    Language                    : English
    Service kind                : Complete Main
    Default                     : No
    Forced                      : No

    Text #1
    ID                          : 4
    Format                      : UTF-8
    Codec ID                    : S_TEXT/UTF8
    Codec ID/Info               : UTF-8 Plain Text
    Duration                    : 1 h 33 min
    Bit rate                    : 101 b/s
    Count of elements           : 1631
    Stream size                 : 69.3 KiB (0%)
    Language                    : Spanish
    Default                     : No
    Forced                      : No

    Text #2
    ID                          : 5
    Format                      : UTF-8
    Codec ID                    : S_TEXT/UTF8
    Codec ID/Info               : UTF-8 Plain Text
    Duration                    : 1 h 33 min
    Bit rate                    : 38 b/s
    Count of elements           : 640
    Stream size                 : 26.3 KiB (0%)
    Title                       : FORZADOS
    Language                    : Spanish
    Default                     : Yes
    Forced                      : No

    Text #3
    ID                          : 6
    Format                      : UTF-8
    Codec ID                    : S_TEXT/UTF8
    Codec ID/Info               : UTF-8 Plain Text
    Duration                    : 1 h 32 min
    Bit rate                    : 112 b/s
    Count of elements           : 1649
    Stream size                 : 76.6 KiB (0%)
    Language                    : English
    Default                     : No
    Forced                      : No

  • Peso: 3.98 GB

Sinopsis

Descargar Pelicula de Netflix, Nobody SpeakTrials of the Free Press hd 1080p Latino, Cuando el tabloide en línea Gawker publicó una cinta sexuada subrepticiamente filmada del luchador profesional Hulk Hogan, encendió una batalla legal de las estacas altas que ponga los derechos de la aislamiento contra la primera enmienda. El asombroso veredicto arruinó a Gawker y su fundador Nick Denton, pero también expuso una figura sombría entre bastidores – el capitalista de riesgo de Silicon Valley, Peter Thiel. Nueve años antes Gawker había despojado a Thiel de su sitio y el multimillonario furioso había estado esperando su oportunidad de destruirlos. El juicio de Florida ocurrió contra el telón de fondo de una elección contenciosa. La batalla de Thiel con Gawker, junto con la secreta compra de Sheldon Adelson del Las Vegas Review-Journal y el trato del presidente Trump a los periodistas, anuncian una tendencia siniestra que amenaza a una prensa libre y ha puesto de manifiesto una amenaza potencial a la democracia. ¿Están los muy ricos frustrando la Primera Enmienda para silenciar a los críticos? En una época de desigualdad extrema, ¿qué tan vulnerable es una prensa libre que ha perdido la mayor parte de sus fuentes tradicionales de ingresos? Tal vez lo más espantoso, ¿qué podría hacer un millonario con el poder ejecutivo a su mando a los que lo han enojado?

Ficha técnica

  • Titulo original: Nobody Speak: Trials of the Free Press
  • Fecha de lanzamiento: 24-01-2017
  • Director: Brian Knappenberger
  • Género: Documental
  • Puntuación: 0.0 0 votos
  • Duración:
    1h 35m

Video trailer de la película

Enlaces de descarga

Descargar Nobody SpeakTrials of the Free Press (2017) Webdl 1080p Latino
Descargar
Descargar Nobody SpeakTrials of the Free Press (2017) Webdl 1080p Latino

dpeliculas

Aportes de DPeliculasHDmega la pass es:dpeliculashdmega.org Aportes de CinemaniaHD la pass es:cinemaniahdd.com
Guardado en : Documental

Películas relacionadas

  • Born in China (2016) 1080p Latino

    2017
    Born in China (2016) 1080p Latino

    4.0 1h 19m 2017

    Documental de la filial de Walt Disney Disneynature que recoge la vida salvaje y la belleza natural de...

    Director: Lu Chuan

    Género: Documental

    Actores: Zhou Xun

  • Icarus (2017) Webdl 1080p Latino

    2017
    Icarus (2017) Webdl 1080p Latino

    5.0 2h1m 2017

    Mientras investiga el mundo furtivo del dopaje ilegal en los deportes, el director Bryan Fogel se conecta...

    Director: Bryan Fogel

    Género: Documental

    Actores: Nikita Kamaev

  • Chasing Coral (2017) Webdl 1080p Latino

    2017
    Chasing Coral (2017) Webdl 1080p Latino

    4.0 1h 24m 2017

    Los arrecifes de coral son el vivero para toda la vida en los océanos, un ecosistema notable que nos...

    Director: Jeff Orlowski

    Género: Documental

    Actores: Zackery Rago

  • McLaren (2017) 1080p Latino

    2017
    McLaren (2017) 1080p Latino

    0.0 0h 0m 2017

    La historia de Bruce McLaren, el neozelandes fundador del equipo McLaren Motor Racing team. Un hombre...

    Director: Roger Donaldson

    Género: Documental

    Actores: Matt Coldrick

  • Antes de la Inundación (2016) WEBDL 1080p Latino

    2016
    Antes de la Inundación (2016) WEBDL 1080p Latino

    3.0 1h 36m 2016

    Una mirada a los efectos del cambio climático en nuestro entorno y cómo la sociedad puede prevenirlos,...

    Director: Fisher Stevens

    Género: Documental

    Actores: Tommy E. Remengesau Jr.

Comentarios 0