Advertise here

Nunca digas su nombre (2017) Theatrical Full 1080p Latino

1.596 vistas
1 estrella2 estrellas3 estrellas4 estrellas5 estrellas (1 votos, promedio: 5,00 de 5)
Cargando…

Información de Nunca digas su nombre (2017) Theatrical Full 1080p Latino

Datos de la película

  • Calidad: Full 1080p
  • Audio: Español Latino AC3 5.1 iTUNES - Ingles DTS 5.1 BLURAY
  • Subtitulos: Español Latino PGS - Ingles PGS
  • Resolución: 1920x1080p
  • Formato: MKV
  • Codec: H.264
  • Encoder: Dpelis
  • Mediainfo: Clic para Mostrar Datos Ver
  • The.bye.bye.man.2017.full latino.mkv
    Format                      : Matroska
    Format version              : Version 4 / Version 2
    File size                   : 3.52 GiB
    Duration                    : 1 h 36 min
    Overall bit rate            : 5 235 kb/s
    Movie name                  : DpeliculasHDMega.ORG
    Encoded date                : UTC 2017-07-13 22:26:37 / UTC 2017-07-12T03:50:56Z
    Writing application         : mkvmerge v10.0.0 ('To Drown In You') 64bit
    Writing library             : libebml v1.3.4 + libmatroska v1.4.5 / Lavf57.7.2

    Video
    ID                          : 1
    Format                      : AVC
    Format/Info                 : Advanced Video Codec
    Format profile              : High@L4.1
    Format settings, CABAC      : Yes
    Format settings, ReFrames   : 4 frames
    Codec ID                    : V_MPEG4/ISO/AVC
    Duration                    : 1 h 36 min
    Bit rate                    : 3 237 kb/s
    Width                       : 1 920 pixels
    Height                      : 1 080 pixels
    Display aspect ratio        : 16:9
    Frame rate mode             : Constant
    Frame rate                  : 23.976 (24000/1001) FPS
    Color space                 : YUV
    Chroma subsampling          : 4:2:0
    Bit depth                   : 8 bits
    Scan type                   : Progressive
    Bits/(Pixel*Frame)          : 0.065
    Stream size                 : 2.18 GiB (62%)
    Writing library             : x264 core 148 r2708 86b7198
    Encoding settings           : cabac=1 / ref=4 / deblock=1:0:0 / analyse=0x3:0x133 / me=esa / subme=10 / psy=1 / psy_rd=1.00:0.00 / mixed_ref=1 / me_range=24 / chroma_me=1 / trellis=2 / 8x8dct=1 / cqm=0 / deadzone=21,11 / fast_pskip=1 / chroma_qp_offset=-2 / threads=12 / lookahead_threads=2 / sliced_threads=0 / nr=0 / decimate=1 / interlaced=0 / bluray_compat=0 / constrained_intra=0 / bframes=8 / b_pyramid=2 / b_adapt=2 / b_bias=0 / direct=3 / weightb=1 / open_gop=0 / weightp=2 / keyint=240 / keyint_min=24 / scenecut=40 / intra_refresh=0 / rc_lookahead=60 / rc=crf / mbtree=1 / crf=20.0 / qcomp=0.60 / qpmin=0 / qpmax=69 / qpstep=4 / vbv_maxrate=62500 / vbv_bufsize=78125 / crf_max=0.0 / nal_hrd=none / filler=0 / ip_ratio=1.40 / aq=1:1.00
    Default                     : Yes
    Forced                      : No
    Color range                 : Limited
    Color primaries             : BT.709
    Transfer characteristics    : BT.709
    Matrix coefficients         : BT.709
    Statistics Tags Issue       : mkvmerge v10.0.0 ('To Drown In You') 64bit 2017-07-13 22:26:37 / mkvmerge v10.0.0 ('To Drown In You') 64bit 2017-07-13 22:26:37 / UTC 2017-07-12T03:50:56Z
    FromStats_BitRate           : 3320784
    FromStats_Duration          : 01:36:24.154000000
    FromStats_FrameCount        : 138681
    FromStats_StreamSize        : 2400991426

    Audio #1
    ID                          : 2
    Format                      : AC-3
    Format/Info                 : Audio Coding 3
    Format settings, Endianness : Big
    Codec ID                    : A_AC3
    Duration                    : 1 h 36 min
    Bit rate mode               : Constant
    Bit rate                    : 384 kb/s
    Channel(s)                  : 6 channels
    Channel positions           : Front: L C R, Side: L R, LFE
    Sampling rate               : 48.0 kHz
    Frame rate                  : 31.250 FPS (1536 spf)
    Bit depth                   : 16 bits
    Compression mode            : Lossy
    Delay relative to video     : -5 ms
    Stream size                 : 265 MiB (7%)
    Title                       : Surround
    Language                    : Spanish
    Service kind                : Complete Main
    Default                     : Yes
    Forced                      : No
    Statistics Tags Issue       : mkvmerge v10.0.0 ('To Drown In You') 64bit 2017-07-13 22:26:37 / mkvmerge v10.0.0 ('To Drown In You') 64bit 2017-07-13 22:26:37 / UTC 2017-07-12T03:50:56Z
    FromStats_BitRate           : 384000
    FromStats_Duration          : 01:36:23.328000000
    FromStats_FrameCount        : 180729
    FromStats_StreamSize        : 277599744

    Audio #2
    ID                          : 3
    Format                      : DTS
    Format/Info                 : Digital Theater Systems
    Mode                        : 16
    Format settings, Endianness : Big
    Codec ID                    : A_DTS
    Duration                    : 1 h 36 min
    Bit rate mode               : Constant
    Bit rate                    : 1 509 kb/s
    Channel(s)                  : 6 channels
    Channel positions           : Front: L C R, Side: L R, LFE
    Sampling rate               : 48.0 kHz
    Frame rate                  : 93.750 FPS (512 spf)
    Bit depth                   : 24 bits
    Compression mode            : Lossy
    Stream size                 : 1.02 GiB (29%)
    Title                       : Surround
    Language                    : English
    Default                     : No
    Forced                      : No
    Statistics Tags Issue       : mkvmerge v10.0.0 ('To Drown In You') 64bit 2017-07-13 22:26:37 / mkvmerge v10.0.0 ('To Drown In You') 64bit 2017-07-13 22:26:37 / UTC 2017-07-12T03:50:56Z
    FromStats_BitRate           : 1509000
    FromStats_Duration          : 01:36:24.192000000
    FromStats_FrameCount        : 542268
    FromStats_StreamSize        : 1091043216

    Text #1
    ID                          : 4
    Format                      : PGS
    Muxing mode                 : zlib
    Codec ID                    : S_HDMV/PGS
    Codec ID/Info               : Picture based subtitle format used on BDs/HD-DVDs
    Language                    : Spanish
    Default                     : No
    Forced                      : No
    Statistics Tags Issue       : mkvmerge v10.0.0 ('To Drown In You') 64bit 2017-07-13 22:26:37 / mkvmerge v10.0.0 ('To Drown In You') 64bit 2017-07-13 22:26:37 / UTC 2017-07-12T03:50:56Z
    FromStats_BitRate           : 8346
    FromStats_Duration          : 01:34:47.641000000
    FromStats_FrameCount        : 2178
    FromStats_StreamSize        : 5933653

    Text #2
    ID                          : 5
    Format                      : PGS
    Muxing mode                 : zlib
    Codec ID                    : S_HDMV/PGS
    Codec ID/Info               : Picture based subtitle format used on BDs/HD-DVDs
    Language                    : English
    Default                     : No
    Forced                      : No
    Statistics Tags Issue       : mkvmerge v10.0.0 ('To Drown In You') 64bit 2017-07-13 22:26:37 / mkvmerge v10.0.0 ('To Drown In You') 64bit 2017-07-13 22:26:37 / UTC 2017-07-12T03:50:56Z
    FromStats_BitRate           : 10779
    FromStats_Duration          : 01:28:46.654000000
    FromStats_FrameCount        : 2518
    FromStats_StreamSize        : 7177310

    Menu
    00:00:00.000                : :Chapter 1
    00:05:17.776                : :Chapter 2
    00:09:22.896                : :Chapter 3
    00:14:11.976                : :Chapter 4
    00:18:35.531                : :Chapter 5
    00:24:12.952                : :Chapter 6
    00:27:30.941                : :Chapter 7
    00:32:29.322                : :Chapter 8
    00:36:45.912                : :Chapter 9
    00:40:17.624                : :Chapter 10
    00:45:20.301                : :Chapter 11
    00:49:55.534                : :Chapter 12
    00:54:48.702                : :Chapter 13
    00:59:52.547                : :Chapter 14
    01:03:59.753                : :Chapter 15
    01:07:55.989                : :Chapter 16
    01:14:59.245                : :Chapter 17
    01:19:26.345                : :Chapter 18
    01:27:20.986                : :Chapter 19
    01:30:01.021                : :Chapter 20

  • Peso: 3.52 gb

Sinopsis

Tres estudiantes universitarios alquilan una vieja casa fuera del campus para vivir juntos y ahorrar gastos. La casa tiene un siniestro sótano. Allí, sin quererlo, desatan una entidad sobrenatural conocida como Bye Bye Man, que es invocada con sólo pronunciar o pensar su nombre. Los tres jóvenes intentarán mantener en secreto la identidad de este peligroso ser, para alejar al resto de una muerte segura.

Stacy Title (Hood of Horror, El diablo viste de negro) dirige este thriller de terror escrito por Jonathan Penner (El llanero solitario) y basado en una historia corta de Robert Damon Schneck. Protagonizan la película Douglas Smith (El caso Sloane, Vinyl), Lucien Laviscount (Between Two Worlds, Scream Queens), Doug Jones (Ouija: El origen del mal, La cumbre escarlata), Michael Trucco (Hush, Cómo conocí a vuestra madre) y Carrie-Anne Moss (Iron Fist, Jessica Jones).

Ficha técnica

Video trailer de la película

Enlaces de descarga

Descargar Nunca digas su nombre (2017) Theatrical Full 1080p Latino
Descargar

dpeliculas

Aportes de DPeliculasHDmega la pass es:dpeliculashdmega.org Aportes de CinemaniaHD la pass es:cinemaniahdd.com

Películas relacionadas

  • Línea mortal: al límite (2017) Full 1080p Latino

    2017
    Línea mortal: al límite (2017) Full 1080p Latino

    0.0 1 h 49 min 2017

    Remake del clasico de los 90 Línea mortal (Flatliners). Un grupo de jóvenes estudiantes de medicina...

    Director: Niels Arden Oplev

    Género: Ciencia ficción

    Actores: Wendy Raquel Robinson

  • La montaña entre nosotros (2017) Full 1080p Latino

    2017
    La montaña entre nosotros (2017) Full 1080p Latino

    5.0 1 h 51 min 2017

    Abandonados a su suerte después de un trágico accidente aéreo, Ben Bass (Idris Elba) y Alex Martin...

    Director: Tim Macarthur

    Género: Aventura

    Actores: Waleed Zuaiter

  • El francotirador (1978) Full 1080p Latino

    1978
    El francotirador (1978) Full 1080p Latino

    0.0 3h 2m 1978

    Descargar Pelicula El francotirador 1978 hd latino Unos amigos de un pequeño pueblo industrial acuden...

    Director: Michael Cimino

    Género: Drama

    Actores: Vitoon Winwitoon

  • Star Trek: En la oscuridad (2013) Full 1080p Latino

    2013
    Star Trek: En la oscuridad (2013) Full 1080p Latino

    5.0 2 h 12 min 2013

    Cuando a la tripulación de la nave Enterprise le ordenan que regrese a casa, en la Tierra se enfrentan...

    Director: Vanessa Meier

    Género: Acción

    Actores: Zoe Saldana

Comentarios 4
  • slash - 15 julio, 2017

    Gracias, los subtítulos de Tamabin están desfasados, así que le hice unos usando el pgs de esta película, muchas gracias, pregunta ¿tendremos portada plateada de la versión extendida de esta película?

    Subtítulos Latino Completos srt.
    https://mega.nz/#F!JxNXiITY!W3j4QnjKoUv-_EAVohH1dQ

    • dpelis

      Administrador
      - 16 julio, 2017

      si eran de la version extended, por eso. si habra.

  • Jhefferson - 14 julio, 2017

    Gracias por subir la de nunca digas su nombre en plateada la estaba esperando en esta calidad muchas gracias.

  • Jonna - 14 julio, 2017

    Gracias, a descargar también 😀