Advertise here

Patch Adams (1998) Full 1080p Latino

702 vistas
1 estrella2 estrellas3 estrellas4 estrellas5 estrellas (1 votos, promedio: 5,00 de 5)
Cargando…

Información de Patch Adams (1998) Full 1080p Latino

Datos de la película

  • Calidad: Full 1080p
  • Audio: Español Latino DTS 5.1 BLURAY - Ingles DTS 5.1 BLURAY
  • Subtitulos: Español Latino PGS - Ingles PGS
  • Resolución: 1920X1080
  • Formato: MKV
  • Codec: H.264
  • Encoder: Dpelis
  • Mediainfo: Clic para Mostrar Datos Ver
  • Format                                   : Matroska
    Format version                           : Version 4 / Version 2
    File size                                : 5.00 GiB
    Duration                                 : 1 h 55 min
    Overall bit rate                         : 6 209 kb/s
    Movie name                               : dpeliculashdmega.org
    Encoded date                             : UTC 2017-12-03 02:22:21 / UTC 2017-11-10T18:49:36Z
    Writing application                      : mkvmerge v15.0.0 ('Duel with the Devil') 64-bit
    Writing library                          : libebml v1.3.5 + libmatroska v1.4.5 / Lavf57.7.2

    Video
    ID                                       : 1
    Format                                   : AVC
    Format/Info                              : Advanced Video Codec
    Format profile                           : High@L4.1
    Format settings                          : CABAC / 4 Ref Frames
    Format settings, CABAC                   : Yes
    Format settings, RefFrames               : 4 frames
    Codec ID                                 : V_MPEG4/ISO/AVC
    Duration                                 : 1 h 55 min
    Bit rate                                 : 3 808 kb/s
    Width                                    : 1 920 pixels
    Height                                   : 1 080 pixels
    Display aspect ratio                     : 16:9
    Frame rate mode                          : Constant
    Frame rate                               : 23.976 (24000/1001) FPS
    Color space                              : YUV
    Chroma subsampling                       : 4:2:0
    Bit depth                                : 8 bits
    Scan type                                : Progressive
    Bits/(Pixel*Frame)                       : 0.077
    Stream size                              : 3.07 GiB (61%)
    Title                                    : Patch Adams (1998) Full 1080p Latino
    Writing library                          : x264 core 148 r2708 86b7198
    Encoding settings                        : cabac=1 / ref=4 / deblock=1:0:0 / analyse=0x3:0x133 / me=esa / subme=10 / psy=1 / psy_rd=1.00:0.00 / mixed_ref=1 / me_range=24 / chroma_me=1 / trellis=2 / 8x8dct=1 / cqm=0 / deadzone=21,11 / fast_pskip=1 / chroma_qp_offset=-2 / threads=34 / lookahead_threads=5 / sliced_threads=0 / nr=0 / decimate=1 / interlaced=0 / bluray_compat=0 / constrained_intra=0 / bframes=8 / b_pyramid=2 / b_adapt=2 / b_bias=0 / direct=3 / weightb=1 / open_gop=0 / weightp=2 / keyint=240 / keyint_min=24 / scenecut=40 / intra_refresh=0 / rc_lookahead=60 / rc=crf / mbtree=1 / crf=20.0 / qcomp=0.60 / qpmin=0 / qpmax=69 / qpstep=4 / vbv_maxrate=62500 / vbv_bufsize=78125 / crf_max=0.0 / nal_hrd=none / filler=0 / ip_ratio=1.40 / aq=1:1.00
    Language                                 : English
    Default                                  : Yes
    Forced                                   : No
    Color range                              : Limited
    Color primaries                          : BT.709
    Transfer characteristics                 : BT.709
    Matrix coefficients                      : BT.709
    Statistics Tags Issue                    : mkvmerge v15.0.0 ('Duel with the Devil') 64-bit 2017-12-03 02:22:21 / mkvmerge v15.0.0 ('Duel with the Devil') 64-bit 2017-12-03 02:22:21 / UTC 2017-11-10T18:49:36Z
    FromStats_BitRate                        : 3905636
    FromStats_Duration                       : 01:55:22.624000000
    FromStats_FrameCount                     : 165977
    FromStats_StreamSize                     : 3379656240

    Audio #1
    ID                                       : 2
    Format                                   : DTS
    Format/Info                              : Digital Theater Systems
    Mode                                     : 16
    Format settings, Endianness              : Big
    Codec ID                                 : A_DTS
    Duration                                 : 1 h 55 min
    Bit rate mode                            : Constant
    Bit rate                                 : 768 kb/s
    Channel(s)                               : 6 channels
    Channel positions                        : Front: L C R, Side: L R, LFE
    Sampling rate                            : 48.0 kHz
    Frame rate                               : 93.750 FPS (512 SPF)
    Bit depth                                : 24 bits
    Compression mode                         : Lossy
    Stream size                              : 634 MiB (12%)
    Title                                    : Latino-DTS
    Language                                 : Spanish
    Default                                  : Yes
    Forced                                   : Yes
    Statistics Tags Issue                    : mkvmerge v15.0.0 ('Duel with the Devil') 64-bit 2017-12-03 02:22:21 / mkvmerge v15.0.0 ('Duel with the Devil') 64-bit 2017-12-03 02:22:21 / UTC 2017-11-10T18:49:36Z
    FromStats_BitRate                        : 767999
    FromStats_Duration                       : 01:55:22.635000000
    FromStats_FrameCount                     : 648997
    FromStats_StreamSize                     : 664572928

    Audio #2
    ID                                       : 3
    Format                                   : DTS
    Format/Info                              : Digital Theater Systems
    Mode                                     : 16
    Format settings, Endianness              : Big
    Codec ID                                 : A_DTS
    Duration                                 : 1 h 55 min
    Bit rate mode                            : Constant
    Bit rate                                 : 1 509 kb/s
    Channel(s)                               : 6 channels
    Channel positions                        : Front: L C R, Side: L R, LFE
    Sampling rate                            : 48.0 kHz
    Frame rate                               : 93.750 FPS (512 SPF)
    Bit depth                                : 24 bits
    Compression mode                         : Lossy
    Stream size                              : 1.22 GiB (24%)
    Title                                    : Ingles-DTS
    Language                                 : English
    Default                                  : No
    Forced                                   : No
    Statistics Tags Issue                    : mkvmerge v15.0.0 ('Duel with the Devil') 64-bit 2017-12-03 02:22:21 / mkvmerge v15.0.0 ('Duel with the Devil') 64-bit 2017-12-03 02:22:21 / UTC 2017-11-10T18:49:36Z
    FromStats_BitRate                        : 1509001
    FromStats_Duration                       : 01:55:22.635000000
    FromStats_FrameCount                     : 648997
    FromStats_StreamSize                     : 1305783496

    Text #1
    ID                                       : 4
    Format                                   : PGS
    Muxing mode                              : zlib
    Codec ID                                 : S_HDMV/PGS
    Codec ID/Info                            : Picture based subtitle format used on BDs/HD-DVDs
    Title                                    : PGS-Forzados
    Language                                 : Spanish
    Default                                  : Yes
    Forced                                   : Yes
    Statistics Tags Issue                    : mkvmerge v15.0.0 ('Duel with the Devil') 64-bit 2017-12-03 02:22:21 / mkvmerge v15.0.0 ('Duel with the Devil') 64-bit 2017-12-03 02:22:21 / UTC 2017-11-10T18:49:36Z
    FromStats_BitRate                        : 98
    FromStats_Duration                       : 01:54:58.642000000
    FromStats_FrameCount                     : 10
    FromStats_StreamSize                     : 85055

    Text #2
    ID                                       : 5
    Format                                   : PGS
    Muxing mode                              : zlib
    Codec ID                                 : S_HDMV/PGS
    Codec ID/Info                            : Picture based subtitle format used on BDs/HD-DVDs
    Title                                    : PGS-Completos
    Language                                 : Spanish
    Default                                  : No
    Forced                                   : No
    Statistics Tags Issue                    : mkvmerge v15.0.0 ('Duel with the Devil') 64-bit 2017-12-03 02:22:21 / mkvmerge v15.0.0 ('Duel with the Devil') 64-bit 2017-12-03 02:22:21 / UTC 2017-11-10T18:49:36Z
    FromStats_BitRate                        : 32277
    FromStats_Duration                       : 01:54:58.642000000
    FromStats_FrameCount                     : 2574
    FromStats_StreamSize                     : 27833765

    Text #3
    ID                                       : 6
    Format                                   : PGS
    Muxing mode                              : zlib
    Codec ID                                 : S_HDMV/PGS
    Codec ID/Info                            : Picture based subtitle format used on BDs/HD-DVDs
    Title                                    : PGS
    Language                                 : English
    Default                                  : No
    Forced                                   : No
    Statistics Tags Issue                    : mkvmerge v15.0.0 ('Duel with the Devil') 64-bit 2017-12-03 02:22:21 / mkvmerge v15.0.0 ('Duel with the Devil') 64-bit 2017-12-03 02:22:21 / UTC 2017-11-10T18:49:36Z
    FromStats_BitRate                        : 47479
    FromStats_Duration                       : 01:53:50.365000000
    FromStats_FrameCount                     : 3659
    FromStats_StreamSize                     : 40537389

    Menu
    00:00:00.000                             : :00:00:00.000
    00:09:41.706                             : :00:09:41.706
    00:16:37.788                             : :00:16:37.788
    00:21:24.533                             : :00:21:24.533
    00:27:39.741                             : :00:27:39.741
    00:45:03.492                             : :00:45:03.492
    00:52:08.792                             : :00:52:08.792
    00:58:17.327                             : :00:58:17.327
    01:01:39.196                             : :01:01:39.195
    01:04:22.317                             : :01:04:22.317
    01:09:01.888                             : :01:09:01.763
    01:16:22.453                             : :01:16:22.453
    01:22:36.326                             : :01:22:36.326
    01:36:37.917                             : :01:36:37.917
    01:39:34.760                             : :01:39:34.760
    01:46:35.180                             : :01:46:35.180
    01:49:01.994                             : :01:49:01.869
    01:50:18.779                             : :01:50:18.779

  • Peso: 5.00 GiB

Sinopsis

Basada en una historia real, la película es la biografía del médico Patch Adams (Robin Williams), que revolucionó a la comunidad médica oficial aplicando singulares terapias consistentes en hacer reír y proporcionar afecto a los pacientes enfermos de cáncer.

Ficha técnica

Video trailer de la película

Enlaces de descarga

Descargar Patch Adams (1998) Full 1080p Latino
Descargar

dpeliculas

Aportes de DPeliculasHDmega la pass es:dpeliculashdmega.org Aportes de CinemaniaHD la pass es:cinemaniahdd.com
Guardado en : Comedia , Drama , FULL 1080p Pesadas

Películas relacionadas

  • Línea mortal: Al límite (2017) 1080p Latino

    2017
    Línea mortal: Al límite (2017) 1080p Latino

    0.0 1 h 49 min 2017

    Un grupo de jóvenes estudiantes de medicina llevan a cabo un experimento que implica una muerte provocada...

    Director: Niels Arden Oplev

    Género: Ciencia ficción

    Actores: Wendy Raquel Robinson

  • La hora del cambio (2017) 1080p Latino

    2017
    La hora del cambio (2017) 1080p Latino

    0.0 1 h 32 min 2017

    Los vecinos del pequeño pueblo siciliano de Pietrammare viven acostumbrados al caos que conlleva “saltarse...

    Director: Valentino Picone

    Género: Comedia

    Actores: Vincenzo Ferrera

  • Un reino unido (2016) 1080p Latino

    2016
    Un reino unido (2016) 1080p Latino

    0.0 1 h 50 min 2016

    Biopic sobre el Príncipe Seretse Khama, el rey de Botsuana, que al contraer matrimonio en 1948 con Ruth...

    Director: Amma Asante

    Género: Drama

    Actores: Zackary Momoh

  • The Walking Dead (2017) Temporada 8 WEB-DL 1080p Latino

    2017
    The Walking Dead (2017) Temporada 8 WEB-DL 1080p Latino

    5.0 0h 42m 2017

    Rick, Maggie y Ezekiel reúnen a sus comunidades para derrotar a Negan y los salvadores. Gregory intenta...

    Director: Frank Darabont

    Género: Action & Adventure

    Actores: Norman Reedus

Comentarios 4
  • ersito - 05 diciembre, 2017

    Contraseñas no funcionan, alguna solucion.
    Saludos Desde Chile

    • dpelis

      Administrador
      - 06 diciembre, 2017

      dpeliculashdmega.org

      • luis - 08 diciembre, 2017

        no aplica PatchAdams1998Full1080Lat.part1 pass: cinemaniahdd.com
        dpeliculashdmega.org niguno es da error

        • dpelis

          Administrador
          - 08 diciembre, 2017

          debe funcionar, tiene winrar ultima version full?