Advertise here

Poltergeist II: El otro lado (1986) 1080p Full Latino

423 vistas
1 estrella2 estrellas3 estrellas4 estrellas5 estrellas (1 votos, promedio: 5,00 de 5)
Cargando…

Información de Poltergeist II: El otro lado (1986) 1080p Full Latino

Datos de la película

  • Calidad: Full 1080p
  • Audio: Español Latino AC3 5.1 BLURAY - Ingles DTS 5.1 BLURAY
  • Subtitulos: Español Latino PGS - Ingles PGS
  • Resolución: 1920x1080p
  • Formato: MKV
  • Codec: H.264
  • Encoder: Dpelis1
  • Mediainfo: Clic para Mostrar Datos Ver
  • Video
    ID                                       : 1
    Format                                   : AVC
    Format/Info                              : Advanced Video Codec
    Format profile                           : High@L4.1
    Format settings, CABAC                   : Yes
    Format settings, RefFrames               : 4 frames
    Codec ID                                 : V_MPEG4/ISO/AVC
    Duration                                 : 1 h 30 min
    Bit rate                                 : 11.8 Mb/s
    Width                                    : 1 920 pixels
    Height                                   : 1 080 pixels
    Display aspect ratio                     : 16:9
    Frame rate mode                          : Constant
    Frame rate                               : 23.976 (24000/1001) FPS
    Color space                              : YUV
    Chroma subsampling                       : 4:2:0
    Bit depth                                : 8 bits
    Scan type                                : Progressive
    Bits/(Pixel*Frame)                       : 0.237
    Stream size                              : 7.47 GiB (84%)
    Writing library                          : x264 core 148 r2708 86b7198
    Encoding settings                        : cabac=1 / ref=4 / deblock=1:0:0 / analyse=0x3:0x133 / me=esa / subme=10 / psy=1 / psy_rd=1.00:0.00 / mixed_ref=1 / me_range=24 / chroma_me=1 / trellis=2 / 8x8dct=1 / cqm=0 / deadzone=21,11 / fast_pskip=1 / chroma_qp_offset=-2 / threads=12 / lookahead_threads=2 / sliced_threads=0 / nr=0 / decimate=1 / interlaced=0 / bluray_compat=0 / constrained_intra=0 / bframes=8 / b_pyramid=2 / b_adapt=2 / b_bias=0 / direct=3 / weightb=1 / open_gop=0 / weightp=2 / keyint=240 / keyint_min=24 / scenecut=40 / intra_refresh=0 / rc_lookahead=60 / rc=crf / mbtree=1 / crf=20.0 / qcomp=0.60 / qpmin=0 / qpmax=69 / qpstep=4 / vbv_maxrate=62500 / vbv_bufsize=78125 / crf_max=0.0 / nal_hrd=none / filler=0 / ip_ratio=1.40 / aq=1:1.00
    Default                                  : Yes
    Forced                                   : No
    Color range                              : Limited
    Color primaries                          : BT.709
    Transfer characteristics                 : BT.709
    Matrix coefficients                      : BT.709
    Statistics Tags Issue                    : mkvmerge v10.0.0 ('To Drown In You') 64bit 2017-08-29 15:22:22 / mkvmerge v10.0.0 ('To Drown In You') 64bit 2017-08-29 15:22:22 / UTC 2017-08-28T15:47:05Z
    FromStats_BitRate                        : 12054296
    FromStats_Duration                       : 01:30:37.849000000
    FromStats_FrameCount                     : 130378
    FromStats_StreamSize                     : 8193680807

    Audio #1
    ID                                       : 2
    Format                                   : AC-3
    Format/Info                              : Audio Coding 3
    Format settings, Endianness              : Big
    Codec ID                                 : A_AC3
    Duration                                 : 1 h 30 min
    Bit rate mode                            : Constant
    Bit rate                                 : 448 kb/s
    Channel(s)                               : 6 channels
    Channel positions                        : Front: L C R, Side: L R, LFE
    Sampling rate                            : 48.0 kHz
    Frame rate                               : 31.250 FPS (1536 SPF)
    Bit depth                                : 16 bits
    Compression mode                         : Lossy
    Stream size                              : 291 MiB (3%)
    Language                                 : Spanish
    Service kind                             : Complete Main
    Default                                  : Yes
    Forced                                   : No
    Statistics Tags Issue                    : mkvmerge v10.0.0 ('To Drown In You') 64bit 2017-08-29 15:22:22 / mkvmerge v10.0.0 ('To Drown In You') 64bit 2017-08-29 15:22:22 / UTC 2017-08-28T15:47:05Z
    FromStats_BitRate                        : 448000
    FromStats_Duration                       : 01:30:45.696000000
    FromStats_FrameCount                     : 170178
    FromStats_StreamSize                     : 304958976

    Audio #2
    ID                                       : 3
    Format                                   : DTS
    Format/Info                              : Digital Theater Systems
    Mode                                     : 16
    Format settings, Endianness              : Big
    Codec ID                                 : A_DTS
    Duration                                 : 1 h 30 min
    Bit rate mode                            : Constant
    Bit rate                                 : 1 509 kb/s
    Channel(s)                               : 6 channels
    Channel positions                        : Front: L C R, Side: L R, LFE
    Sampling rate                            : 48.0 kHz
    Frame rate                               : 93.750 FPS (512 SPF)
    Bit depth                                : 24 bits
    Compression mode                         : Lossy
    Stream size                              : 980 MiB (11%)
    Language                                 : English
    Default                                  : No
    Forced                                   : No
    Statistics Tags Issue                    : mkvmerge v10.0.0 ('To Drown In You') 64bit 2017-08-29 15:22:22 / mkvmerge v10.0.0 ('To Drown In You') 64bit 2017-08-29 15:22:22 / UTC 2017-08-28T15:47:05Z
    FromStats_BitRate                        : 1509003
    FromStats_Duration                       : 01:30:37.750000000
    FromStats_FrameCount                     : 509789
    FromStats_StreamSize                     : 1025697688

    Text #1
    ID                                       : 4
    Format                                   : PGS
    Muxing mode                              : zlib
    Codec ID                                 : S_HDMV/PGS
    Codec ID/Info                            : Picture based subtitle format used on BDs/HD-DVDs
    Language                                 : Spanish
    Default                                  : Yes
    Forced                                   : No
    Statistics Tags Issue                    : mkvmerge v10.0.0 ('To Drown In You') 64bit 2017-08-29 15:22:22 / mkvmerge v10.0.0 ('To Drown In You') 64bit 2017-08-29 15:22:22 / UTC 2017-08-28T15:47:05Z
    FromStats_BitRate                        : 7948
    FromStats_Duration                       : 01:29:55.640000000
    FromStats_FrameCount                     : 2090
    FromStats_StreamSize                     : 5361146

    Text #2
    ID                                       : 5
    Format                                   : PGS
    Muxing mode                              : zlib
    Codec ID                                 : S_HDMV/PGS
    Codec ID/Info                            : Picture based subtitle format used on BDs/HD-DVDs
    Language                                 : English
    Default                                  : No
    Forced                                   : No
    Statistics Tags Issue                    : mkvmerge v10.0.0 ('To Drown In You') 64bit 2017-08-29 15:22:22 / mkvmerge v10.0.0 ('To Drown In You') 64bit 2017-08-29 15:22:22 / UTC 2017-08-28T15:47:05Z
    FromStats_BitRate                        : 22141
    FromStats_Duration                       : 01:27:37.127000000
    FromStats_FrameCount                     : 2560
    FromStats_StreamSize                     : 14550169

    Menu
    00:00:00.000                             : :Chapter 1
    00:07:48.385                             : :Chapter 2
    00:15:03.111                             : :Chapter 3
    00:22:35.187                             : :Chapter 4
    00:29:33.355                             : :Chapter 5
    00:37:27.829                             : :Chapter 6
    00:45:07.038                             : :Chapter 7
    00:53:49.268                             : :Chapter 8
    01:01:40.572                             : :Chapter 9
    01:08:00.702                             : :Chapter 10
    01:15:41.203                             : :Chapter 11
    01:22:12.719                             : :Chapter 12

  • Peso: 8,89 GB

Sinopsis

Descargar gratis Poltergeist II: El otro lado (1986) 1080p Full Latino. La familia Feeling se ha mudado de casa para dejar atrás los fenómenos paranormales del pasado. Sin embargo, la pequeña Carol Anne sigue teniendo poderes extrasensoriales, ya que la noche en que su abuela muere, la niña habla con ella a través de un teléfono de juguete. Kane, un demonio disfrazado de predicador, intenta convencer a Carol Anne para llevarla al más allá. La desesperada familia se verá obligada a pedir ayuda a un misterioso médium.

Ficha técnica

Video trailer de la película

Enlaces de descarga

Descargar Poltergeist II: El otro lado (1986) 1080p Full Latino
Descargar

dpeliculas

Aportes de DPeliculasHDmega la pass es:dpeliculashdmega.org Aportes de CinemaniaHD la pass es:cinemaniahdd.com

Películas relacionadas

  • El francotirador (1978) Full 1080p Latino

    1978
    El francotirador (1978) Full 1080p Latino

    0.0 3h 2m 1978

    Descargar Pelicula El francotirador 1978 hd latino Unos amigos de un pequeño pueblo industrial acuden...

    Director: Michael Cimino

    Género: Drama

    Actores: Vitoon Winwitoon

  • Star Trek: En la oscuridad (2013) Full 1080p Latino

    2013
    Star Trek: En la oscuridad (2013) Full 1080p Latino

    5.0 2 h 12 min 2013

    Cuando a la tripulación de la nave Enterprise le ordenan que regrese a casa, en la Tierra se enfrentan...

    Director: Vanessa Meier

    Género: Acción

    Actores: Zoe Saldana

  • Dulce venganza (2016) 1080p Latino

    2016
    Dulce venganza (2016) 1080p Latino

    2.0 1 h 34 min 2016

    Un asesino de élite llamado Frank, tras ser traicionado por unos gángsters, es enviado a una cirujana...

    Director: Walter Hill

    Género: Acción

    Actores: Zak Santiago

Comentarios 0