Advertise here

Poltergeist III (1988) 1080p Full Latino

461 vistas
1 estrella2 estrellas3 estrellas4 estrellas5 estrellas (1 votos, promedio: 5,00 de 5)
Cargando…

Información de Poltergeist III (1988) 1080p Full Latino

Datos de la película

  • Calidad: Full 1080p
  • Audio: Español Latino AC3 5.1 BLURAY - Ingles DTS 5.1 BLURAY
  • Subtitulos: Español Latino PGS - Ingles PGS
  • Resolución: 1920x1080p
  • Formato: MKV
  • Codec: H.264
  • Encoder: Dpelis1
  • Mediainfo: Clic para Mostrar Datos Ver
  • Video
    ID                                       : 1
    Format                                   : AVC
    Format/Info                              : Advanced Video Codec
    Format profile                           : High@L4.1
    Format settings, CABAC                   : Yes
    Format settings, RefFrames               : 4 frames
    Codec ID                                 : V_MPEG4/ISO/AVC
    Duration                                 : 1 h 37 min
    Bit rate                                 : 16.5 Mb/s
    Width                                    : 1 920 pixels
    Height                                   : 1 080 pixels
    Display aspect ratio                     : 16:9
    Frame rate mode                          : Constant
    Frame rate                               : 23.976 (24000/1001) FPS
    Color space                              : YUV
    Chroma subsampling                       : 4:2:0
    Bit depth                                : 8 bits
    Scan type                                : Progressive
    Bits/(Pixel*Frame)                       : 0.332
    Stream size                              : 11.3 GiB (88%)
    Writing library                          : x264 core 148 r2708 86b7198
    Encoding settings                        : cabac=1 / ref=4 / deblock=1:0:0 / analyse=0x3:0x133 / me=esa / subme=10 / psy=1 / psy_rd=1.00:0.00 / mixed_ref=1 / me_range=24 / chroma_me=1 / trellis=2 / 8x8dct=1 / cqm=0 / deadzone=21,11 / fast_pskip=1 / chroma_qp_offset=-2 / threads=12 / lookahead_threads=2 / sliced_threads=0 / nr=0 / decimate=1 / interlaced=0 / bluray_compat=0 / constrained_intra=0 / bframes=8 / b_pyramid=2 / b_adapt=2 / b_bias=0 / direct=3 / weightb=1 / open_gop=0 / weightp=2 / keyint=240 / keyint_min=24 / scenecut=40 / intra_refresh=0 / rc_lookahead=60 / rc=crf / mbtree=1 / crf=20.0 / qcomp=0.60 / qpmin=0 / qpmax=69 / qpstep=4 / vbv_maxrate=62500 / vbv_bufsize=78125 / crf_max=0.0 / nal_hrd=none / filler=0 / ip_ratio=1.40 / aq=1:1.00
    Default                                  : Yes
    Forced                                   : No
    Color range                              : Limited
    Color primaries                          : BT.709
    Transfer characteristics                 : BT.709
    Matrix coefficients                      : BT.709
    Statistics Tags Issue                    : mkvmerge v10.0.0 ('To Drown In You') 64bit 2017-08-29 16:14:31 / mkvmerge v10.0.0 ('To Drown In You') 64bit 2017-08-29 16:14:31 / UTC 2017-08-29T01:19:53Z
    FromStats_BitRate                        : 16855871
    FromStats_Duration                       : 01:37:43.733000000
    FromStats_FrameCount                     : 140589
    FromStats_StreamSize                     : 12354791178

    Audio #1
    ID                                       : 2
    Format                                   : AC-3
    Format/Info                              : Audio Coding 3
    Format settings, Endianness              : Big
    Codec ID                                 : A_AC3
    Duration                                 : 1 h 37 min
    Bit rate mode                            : Constant
    Bit rate                                 : 448 kb/s
    Channel(s)                               : 6 channels
    Channel positions                        : Front: L C R, Side: L R, LFE
    Sampling rate                            : 48.0 kHz
    Frame rate                               : 31.250 FPS (1536 SPF)
    Bit depth                                : 16 bits
    Compression mode                         : Lossy
    Delay relative to video                  : 6 s 0 ms
    Stream size                              : 313 MiB (2%)
    Language                                 : Spanish
    Service kind                             : Complete Main
    Default                                  : Yes
    Forced                                   : No
    Statistics Tags Issue                    : mkvmerge v10.0.0 ('To Drown In You') 64bit 2017-08-29 16:14:31 / mkvmerge v10.0.0 ('To Drown In You') 64bit 2017-08-29 16:14:31 / UTC 2017-08-29T01:19:53Z
    FromStats_BitRate                        : 448000
    FromStats_Duration                       : 01:37:34.752000000
    FromStats_FrameCount                     : 182961
    FromStats_StreamSize                     : 327866112

    Audio #2
    ID                                       : 3
    Format                                   : DTS
    Format/Info                              : Digital Theater Systems
    Mode                                     : 16
    Format settings, Endianness              : Big
    Codec ID                                 : A_DTS
    Duration                                 : 1 h 37 min
    Bit rate mode                            : Constant
    Bit rate                                 : 1 509 kb/s
    Channel(s)                               : 6 channels
    Channel positions                        : Front: L C R, Side: L R, LFE
    Sampling rate                            : 48.0 kHz
    Frame rate                               : 93.750 FPS (512 SPF)
    Bit depth                                : 24 bits
    Compression mode                         : Lossy
    Stream size                              : 1.03 GiB (8%)
    Language                                 : English
    Default                                  : No
    Forced                                   : No
    Statistics Tags Issue                    : mkvmerge v10.0.0 ('To Drown In You') 64bit 2017-08-29 16:14:31 / mkvmerge v10.0.0 ('To Drown In You') 64bit 2017-08-29 16:14:31 / UTC 2017-08-29T01:19:53Z
    FromStats_BitRate                        : 1509000
    FromStats_Duration                       : 01:37:43.755000000
    FromStats_FrameCount                     : 549727
    FromStats_StreamSize                     : 1106050792

    Text #1
    ID                                       : 4
    Format                                   : PGS
    Muxing mode                              : zlib
    Codec ID                                 : S_HDMV/PGS
    Codec ID/Info                            : Picture based subtitle format used on BDs/HD-DVDs
    Language                                 : Spanish
    Default                                  : No
    Forced                                   : No
    Statistics Tags Issue                    : mkvmerge v10.0.0 ('To Drown In You') 64bit 2017-08-29 16:14:31 / mkvmerge v10.0.0 ('To Drown In You') 64bit 2017-08-29 16:14:31 / UTC 2017-08-29T01:19:53Z
    FromStats_BitRate                        : 7973
    FromStats_Duration                       : 01:34:10.270000000
    FromStats_FrameCount                     : 2078
    FromStats_StreamSize                     : 5631474

    Text #2
    ID                                       : 5
    Format                                   : PGS
    Muxing mode                              : zlib
    Codec ID                                 : S_HDMV/PGS
    Codec ID/Info                            : Picture based subtitle format used on BDs/HD-DVDs
    Language                                 : English
    Default                                  : No
    Forced                                   : No
    Statistics Tags Issue                    : mkvmerge v10.0.0 ('To Drown In You') 64bit 2017-08-29 16:14:31 / mkvmerge v10.0.0 ('To Drown In You') 64bit 2017-08-29 16:14:31 / UTC 2017-08-29T01:19:53Z
    FromStats_BitRate                        : 20436
    FromStats_Duration                       : 01:34:04.473000000
    FromStats_FrameCount                     : 2680
    FromStats_StreamSize                     : 14419129

    Menu
    00:00:00.000                             : :Chapter 1
    00:07:56.393                             : :Chapter 2
    00:16:05.590                             : :Chapter 3
    00:24:54.952                             : :Chapter 4
    00:31:57.791                             : :Chapter 5
    00:40:03.985                             : :Chapter 6
    00:48:42.211                             : :Chapter 7
    00:56:03.360                             : :Chapter 8
    01:02:33.291                             : :Chapter 9
    01:10:09.455                             : :Chapter 10
    01:18:38.881                             : :Chapter 11
    01:25:52.314                             : :Chapter 12

  • Peso: 12,8 GB

Sinopsis

Descargar gratis Poltergeist III (1988) 1080p Full Latino. Carol Anne ha sido enviada a Chicago a vivir con sus tíos para protegerla del malvado reverendo Kane, y vive ahora en un enorme edificio. Pero una sesión de hipnosis a Carol Anne hace que Kane vuelva a por ella… y tomar posesión de todo el rascacielos.

Ficha técnica

Video trailer de la película

Enlaces de descarga

Descargar Poltergeist III (1988) 1080p Full Latino
Descargar

dpeliculas

Aportes de DPeliculasHDmega la pass es:dpeliculashdmega.org Aportes de CinemaniaHD la pass es:cinemaniahdd.com

Películas relacionadas

  • El francotirador (1978) Full 1080p Latino

    1978
    El francotirador (1978) Full 1080p Latino

    0.0 3h 2m 1978

    Descargar Pelicula El francotirador 1978 hd latino Unos amigos de un pequeño pueblo industrial acuden...

    Director: Michael Cimino

    Género: Drama

    Actores: Vitoon Winwitoon

  • Star Trek: En la oscuridad (2013) Full 1080p Latino

    2013
    Star Trek: En la oscuridad (2013) Full 1080p Latino

    5.0 2 h 12 min 2013

    Cuando a la tripulación de la nave Enterprise le ordenan que regrese a casa, en la Tierra se enfrentan...

    Director: Vanessa Meier

    Género: Acción

    Actores: Zoe Saldana

  • Dulce venganza (2016) 1080p Latino

    2016
    Dulce venganza (2016) 1080p Latino

    2.0 1 h 34 min 2016

    Un asesino de élite llamado Frank, tras ser traicionado por unos gángsters, es enviado a una cirujana...

    Director: Walter Hill

    Género: Acción

    Actores: Zak Santiago

Comentarios 0