Advertise here

Power Rangers (2017) 720p Latino

2.135 vistas
1 estrella2 estrellas3 estrellas4 estrellas5 estrellas (Ninguna valoración todavía)
Cargando…

Información de Power Rangers (2017) 720p Latino

Datos de la película

  • Calidad: 720p
  • Audio: Español Latino AC3 5.1 DVD - Ingles AC3 5.1 BLURAY
  • Subtitulos: Español Latino SRT - Ingles SRT
  • Resolución: 1280x536p
  • Formato: MKV
  • Codec: H.264
  • Encoder: Frank19
  • Mediainfo: Clic para Mostrar Datos Ver
  • Power.rangers.2017.720.LATINO.mkv
    Format                      : Matroska
    Format version              : Version 4 / Version 2
    File size                   : 2.17 GiB
    Duration                    : 2 h 3 min
    Overall bit rate            : 2 508 kb/s
    Movie name                  : DPeliculasHDMega.ORG
    Encoded date                : UTC 2017-06-16 11:08:45 / UTC 2017-06-16T04:12:30Z
    Writing application         : mkvmerge v10.0.0 ('To Drown In You') 64bit
    Writing library             : libebml v1.3.4 + libmatroska v1.4.5 / Lavf57.7.2

    Video
    ID                          : 1
    Format                      : AVC
    Format/Info                 : Advanced Video Codec
    Format profile              : High@L4.1
    Format settings, CABAC      : Yes
    Format settings, ReFrames   : 4 frames
    Codec ID                    : V_MPEG4/ISO/AVC
    Duration                    : 2 h 3 min
    Bit rate                    : 1 700 kb/s
    Width                       : 1 280 pixels
    Height                      : 534 pixels
    Display aspect ratio        : 2.40:1
    Frame rate mode             : Constant
    Frame rate                  : 23.976 (24000/1001) FPS
    Color space                 : YUV
    Chroma subsampling          : 4:2:0
    Bit depth                   : 8 bits
    Scan type                   : Progressive
    Bits/(Pixel*Frame)          : 0.104
    Stream size                 : 1.41 GiB (65%)
    Writing library             : x264 core 148 r2708 86b7198
    Encoding settings           : cabac=1 / ref=3 / deblock=1:0:0 / analyse=0x3:0x113 / me=hex / subme=7 / psy=1 / psy_rd=1.00:0.00 / mixed_ref=1 / me_range=16 / chroma_me=1 / trellis=1 / 8x8dct=1 / cqm=0 / deadzone=21,11 / fast_pskip=1 / chroma_qp_offset=-2 / threads=17 / lookahead_threads=2 / sliced_threads=0 / nr=0 / decimate=1 / interlaced=0 / bluray_compat=0 / constrained_intra=0 / bframes=3 / b_pyramid=2 / b_adapt=1 / b_bias=0 / direct=1 / weightb=1 / open_gop=0 / weightp=2 / keyint=240 / keyint_min=24 / scenecut=40 / intra_refresh=0 / rc_lookahead=40 / rc=abr / mbtree=1 / bitrate=1700 / ratetol=1.0 / qcomp=0.60 / qpmin=0 / qpmax=69 / qpstep=4 / vbv_maxrate=62500 / vbv_bufsize=78125 / nal_hrd=none / filler=0 / ip_ratio=1.40 / aq=1:1.00
    Default                     : Yes
    Forced                      : No
    Color range                 : Limited
    Color primaries             : BT.709
    Transfer characteristics    : BT.709
    Matrix coefficients         : BT.709
    Statistics Tags Issue       : mkvmerge v10.0.0 ('To Drown In You') 64bit 2017-06-16 11:08:45 / mkvmerge v10.0.0 ('To Drown In You') 64bit 2017-06-16 11:08:45 / UTC 2017-06-16T04:12:30Z
    FromStats_BitRate           : 1673942
    FromStats_Duration          : 02:03:58.473000000
    FromStats_FrameCount        : 178345
    FromStats_StreamSize        : 1556447138

    Audio #1
    ID                          : 2
    Format                      : AC-3
    Format/Info                 : Audio Coding 3
    Format settings, Endianness : Big
    Codec ID                    : A_AC3
    Duration                    : 2 h 3 min
    Bit rate mode               : Constant
    Bit rate                    : 448 kb/s
    Channel(s)                  : 6 channels
    Channel positions           : Front: L C R, Side: L R, LFE
    Sampling rate               : 48.0 kHz
    Frame rate                  : 31.250 FPS (1536 spf)
    Bit depth                   : 16 bits
    Compression mode            : Lossy
    Delay relative to video     : -5 ms
    Stream size                 : 397 MiB (18%)
    Language                    : Spanish
    Service kind                : Complete Main
    Default                     : Yes
    Forced                      : No
    Statistics Tags Issue       : mkvmerge v10.0.0 ('To Drown In You') 64bit 2017-06-16 11:08:45 / mkvmerge v10.0.0 ('To Drown In You') 64bit 2017-06-16 11:08:45 / UTC 2017-06-16T04:12:30Z
    FromStats_BitRate           : 448000
    FromStats_Duration          : 02:03:58.464000000
    FromStats_FrameCount        : 232452
    FromStats_StreamSize        : 416553984

    Audio #2
    ID                          : 3
    Format                      : AC-3
    Format/Info                 : Audio Coding 3
    Format settings, Endianness : Big
    Codec ID                    : A_AC3
    Duration                    : 2 h 3 min
    Bit rate mode               : Constant
    Bit rate                    : 384 kb/s
    Channel(s)                  : 6 channels
    Channel positions           : Front: L C R, Side: L R, LFE
    Sampling rate               : 48.0 kHz
    Frame rate                  : 31.250 FPS (1536 spf)
    Bit depth                   : 16 bits
    Compression mode            : Lossy
    Delay relative to video     : -5 ms
    Stream size                 : 341 MiB (15%)
    Title                       : Surround
    Language                    : English
    Service kind                : Complete Main
    Default                     : No
    Forced                      : No
    Statistics Tags Issue       : mkvmerge v10.0.0 ('To Drown In You') 64bit 2017-06-16 11:08:45 / mkvmerge v10.0.0 ('To Drown In You') 64bit 2017-06-16 11:08:45 / UTC 2017-06-16T04:12:30Z
    FromStats_BitRate           : 384000
    FromStats_Duration          : 02:03:58.464000000
    FromStats_FrameCount        : 232452
    FromStats_StreamSize        : 357046272

    Text #1
    ID                          : 4
    Format                      : UTF-8
    Codec ID                    : S_TEXT/UTF8
    Codec ID/Info               : UTF-8 Plain Text
    Language                    : Spanish
    Default                     : No
    Forced                      : No
    Statistics Tags Issue       : mkvmerge v10.0.0 ('To Drown In You') 64bit 2017-06-16 11:08:45 / mkvmerge v10.0.0 ('To Drown In You') 64bit 2017-06-16 11:08:45 / UTC 2017-06-16T04:12:30Z
    FromStats_BitRate           : 60
    FromStats_Duration          : 01:55:11.079000000
    FromStats_FrameCount        : 1810
    FromStats_StreamSize        : 52013

    Text #2
    ID                          : 5
    Format                      : UTF-8
    Codec ID                    : S_TEXT/UTF8
    Codec ID/Info               : UTF-8 Plain Text
    Title                       : FORADOS
    Language                    : Spanish
    Default                     : Yes
    Forced                      : No
    Statistics Tags Issue       : mkvmerge v10.0.0 ('To Drown In You') 64bit 2017-06-16 11:08:45 / mkvmerge v10.0.0 ('To Drown In You') 64bit 2017-06-16 11:08:45 / UTC 2017-06-16T04:12:30Z
    FromStats_BitRate           : 1
    FromStats_Duration          : 01:51:46.945000000
    FromStats_FrameCount        : 47
    FromStats_StreamSize        : 1547

    Text #3
    ID                          : 6
    Format                      : UTF-8
    Codec ID                    : S_TEXT/UTF8
    Codec ID/Info               : UTF-8 Plain Text
    Language                    : English
    Default                     : No
    Forced                      : No
    Statistics Tags Issue       : mkvmerge v10.0.0 ('To Drown In You') 64bit 2017-06-16 11:08:45 / mkvmerge v10.0.0 ('To Drown In You') 64bit 2017-06-16 11:08:45 / UTC 2017-06-16T04:12:30Z
    FromStats_BitRate           : 56
    FromStats_Duration          : 01:52:39.279000000
    FromStats_FrameCount        : 1610
    FromStats_StreamSize        : 47377

    Menu
    00:00:00.000                : :00:00:00.000
    00:07:00.253                : :00:07:00.253
    00:13:45.241                : :00:13:45.241
    00:18:57.720                : :00:18:57.720
    00:25:49.590                : :00:25:49.590
    00:31:17.125                : :00:31:17.125
    00:38:24.761                : :00:38:24.761
    00:50:49.046                : :00:50:49.046
    01:00:00.263                : :01:00:00.221
    01:08:09.877                : :01:08:09.877
    01:17:06.747                : :01:17:06.747
    01:24:41.743                : :01:24:41.743
    01:30:45.023                : :01:30:45.023
    01:34:18.862                : :01:34:18.861
    01:44:32.933                : :01:44:32.933
    01:51:46.158                : :01:51:46.158

  • Peso: 2.17 GB

Sinopsis

Billy, Zack, Kimberly, Trini y Jason son un grupo de adolescentes con las típicas preocupaciones de su edad. Pero todo cambia cuando, después de entrar en contacto con un extraño objeto, descubren que tienen superpoderes. De la noche a la mañana, se conviertenen en superhéroes, así que deciden aprovechar sus increíbles cualidades para salvar el mundo. Y es que, Angel Grove, la pequeña ciudad en la que viven, y el resto del planeta están en peligro por culpa de una amenaza alienígena.

Ficha técnica

Video trailer de la película

Enlaces de descarga

Descargar Power Rangers (2017) 720p Latino
Descargar

dpeliculas

Aportes de DPeliculasHDmega la pass es:dpeliculashdmega.org Aportes de CinemaniaHD la pass es:cinemaniahdd.com
Guardado en : Acción , Aventura , Ciencia ficción

Películas relacionadas

  • Dulce venganza (2016) 1080p Latino

    2016
    Dulce venganza (2016) 1080p Latino

    2.0 1 h 34 min 2016

    Un asesino de élite llamado Frank, tras ser traicionado por unos gángsters, es enviado a una cirujana...

    Director: Walter Hill

    Género: Acción

    Actores: Zak Santiago

  • Línea mortal: Al límite (2017) 1080p Latino

    2017
    Línea mortal: Al límite (2017) 1080p Latino

    0.0 1 h 49 min 2017

    Un grupo de jóvenes estudiantes de medicina llevan a cabo un experimento que implica una muerte provocada...

    Director: Niels Arden Oplev

    Género: Ciencia ficción

    Actores: Wendy Raquel Robinson

  • La LEGO Ninjago pelicula (2017) Full 1080p Latino

    2017
    La LEGO Ninjago pelicula (2017) Full 1080p Latino

    4.0 1h 40m 2017

    Una tierra lejana amenazada por la oscuridad. En este lugar llamado Ninjago, las fuerzas del bien y del...

    Director: Paul Fisher

    Género: Acción

    Actores: Zach Woods

  • El libro de la selva (2016) Full 1080p Latino

    2016
    El libro de la selva (2016) Full 1080p Latino

    5.0 1h 45m 2016

    Después de ser abandonado en la selva, una familia de lobos cría al pequeño cachorro humano Mowgli....

    Director: Jon Favreau

    Género: Aventura

    Actores: Sean W. Johnson

Comentarios 6
  • japo - 23 junio, 2017

    hola capo, vas agregar el audio 5.1 bluray latino para bajar a parte?

    • dpelis

      Administrador
      - 23 junio, 2017

      hola estimado, no. eso solo la portada gris. saludos

  • david aching davila capurro - 15 junio, 2017

    oye compadre ese sitio web,te lo juro que por mi madre esta muy bacan y bonito compadre,no se que decir que ese sitio web y me esta volviendo loco chochera,me encanta ver en lo que se ven asi en tu sitio web compadrito mio,ese sitio web se llama dpeliculashdmega, me lo que dare como mi propia cosa,y yo se cuidar muy bien con ese sitio web,gracias,te pasate compadre mio,bye.

    • dpelis

      Administrador
      - 15 junio, 2017

      gracias estimado, Disfrute de las peliculas

  • Matias - 13 junio, 2017

    Muchas gracias!! espero el dual tambien :3 asumo que en ya aparecera jaja

    • dpelis

      Administrador
      - 14 junio, 2017

      el dual.? la pelicula tiene dos audios.