Advertise here

Prison Break (2007) Temporada 3 Full 1080p Latino

949 vistas
1 estrella2 estrellas3 estrellas4 estrellas5 estrellas (Ninguna valoración todavía)
Cargando…

Información de Prison Break (2007) Temporada 3 Full 1080p Latino

Datos de la película

  • Calidad: Full 1080p
  • Audio: Español Latino AC3 2.0 DVD - Ingles DTS 5.1 BLURAY
  • Subtitulos: Español Latino PGS - Ingles PGS
  • Resolución: 1920x1080p
  • Formato: MKV
  • Codec: H.264
  • Encoder: Dpelis
  • Mediainfo: Clic para Mostrar Datos Ver
  • Prison Break S03E01 Full 1080p Latino.mkv
    Format                      : Matroska
    Format version              : Version 4 / Version 2
    File size                   : 5.07 GiB
    Duration                    : 43 min 6 s
    Overall bit rate            : 16.8 Mb/s
    Movie name                  : DPeliculasHDMega.ORG
    Encoded date                : UTC 2017-09-03 05:26:14 / UTC 2017-08-10T21:17:59Z
    Writing application         : mkvmerge v10.0.0 ('To Drown In You') 64bit
    Writing library             : libebml v1.3.4 + libmatroska v1.4.5 / Lavf57.7.2

    Video
    ID                          : 1
    Format                      : AVC
    Format/Info                 : Advanced Video Codec
    Format profile              : High@L4.1
    Format settings, CABAC      : Yes
    Format settings, ReFrames   : 4 frames
    Codec ID                    : V_MPEG4/ISO/AVC
    Duration                    : 43 min 6 s
    Bit rate                    : 14.8 Mb/s
    Width                       : 1 920 pixels
    Height                      : 1 080 pixels
    Display aspect ratio        : 16:9
    Frame rate mode             : Constant
    Frame rate                  : 23.976 (24000/1001) FPS
    Color space                 : YUV
    Chroma subsampling          : 4:2:0
    Bit depth                   : 8 bits
    Scan type                   : Progressive
    Bits/(Pixel*Frame)          : 0.298
    Stream size                 : 4.45 GiB (88%)
    Writing library             : x264 core 148 r2708 86b7198
    Encoding settings           : cabac=1 / ref=4 / deblock=1:0:0 / analyse=0x3:0x133 / me=esa / subme=9 / psy=1 / psy_rd=1.00:0.00 / mixed_ref=1 / me_range=16 / chroma_me=1 / trellis=2 / 8x8dct=1 / cqm=0 / deadzone=21,11 / fast_pskip=1 / chroma_qp_offset=-2 / threads=34 / lookahead_threads=2 / sliced_threads=0 / nr=0 / decimate=1 / interlaced=0 / bluray_compat=0 / constrained_intra=0 / bframes=3 / b_pyramid=2 / b_adapt=2 / b_bias=0 / direct=3 / weightb=1 / open_gop=0 / weightp=2 / keyint=240 / keyint_min=24 / scenecut=40 / intra_refresh=0 / rc_lookahead=60 / rc=crf / mbtree=1 / crf=21.0 / qcomp=0.60 / qpmin=0 / qpmax=69 / qpstep=4 / vbv_maxrate=62500 / vbv_bufsize=78125 / crf_max=0.0 / nal_hrd=none / filler=0 / ip_ratio=1.40 / aq=1:1.00
    Default                     : Yes
    Forced                      : No
    Color range                 : Limited
    Color primaries             : BT.709
    Transfer characteristics    : BT.709
    Matrix coefficients         : BT.709
    Statistics Tags Issue       : mkvmerge v10.0.0 ('To Drown In You') 64bit 2017-09-03 05:26:14 / mkvmerge v10.0.0 ('To Drown In You') 64bit 2017-09-03 05:26:14 / UTC 2017-08-10T21:17:59Z
    FromStats_BitRate           : 15107183
    FromStats_Duration          : 00:43:05.583000000
    FromStats_FrameCount        : 61992
    FromStats_StreamSize        : 4882609447

    Audio #1
    ID                          : 2
    Format                      : AC-3
    Format/Info                 : Audio Coding 3
    Format settings, Endianness : Big
    Codec ID                    : A_AC3
    Duration                    : 43 min 6 s
    Bit rate mode               : Constant
    Bit rate                    : 192 kb/s
    Channel(s)                  : 2 channels
    Channel positions           : Front: L R
    Sampling rate               : 48.0 kHz
    Frame rate                  : 31.250 FPS (1536 spf)
    Bit depth                   : 16 bits
    Compression mode            : Lossy
    Delay relative to video     : 1 s 0 ms
    Stream size                 : 59.2 MiB (1%)
    Language                    : Spanish
    Service kind                : Complete Main
    Default                     : Yes
    Forced                      : No
    Statistics Tags Issue       : mkvmerge v10.0.0 ('To Drown In You') 64bit 2017-09-03 05:26:14 / mkvmerge v10.0.0 ('To Drown In You') 64bit 2017-09-03 05:26:14 / UTC 2017-08-10T21:17:59Z
    FromStats_BitRate           : 192000
    FromStats_Duration          : 00:43:05.056000000
    FromStats_FrameCount        : 80783
    FromStats_StreamSize        : 62041344

    Audio #2
    ID                          : 3
    Format                      : DTS
    Format/Info                 : Digital Theater Systems
    Mode                        : 16
    Format settings, Endianness : Big
    Codec ID                    : A_DTS
    Duration                    : 43 min 6 s
    Bit rate mode               : Constant
    Bit rate                    : 1 509 kb/s
    Channel(s)                  : 6 channels
    Channel positions           : Front: L C R, Side: L R, LFE
    Sampling rate               : 48.0 kHz
    Frame rate                  : 93.750 FPS (512 spf)
    Bit depth                   : 24 bits
    Compression mode            : Lossy
    Stream size                 : 465 MiB (9%)
    Title                       : Surround
    Language                    : English
    Default                     : No
    Forced                      : No
    Statistics Tags Issue       : mkvmerge v10.0.0 ('To Drown In You') 64bit 2017-09-03 05:26:14 / mkvmerge v10.0.0 ('To Drown In You') 64bit 2017-09-03 05:26:14 / UTC 2017-08-10T21:17:59Z
    FromStats_BitRate           : 1508999
    FromStats_Duration          : 00:43:05.622000000
    FromStats_FrameCount        : 242402
    FromStats_StreamSize        : 487712824

    Text #1
    ID                          : 4
    Format                      : PGS
    Muxing mode                 : zlib
    Codec ID                    : S_HDMV/PGS
    Codec ID/Info               : Picture based subtitle format used on BDs/HD-DVDs
    Language                    : Spanish
    Default                     : No
    Forced                      : No
    Statistics Tags Issue       : mkvmerge v10.0.0 ('To Drown In You') 64bit 2017-09-03 05:26:14 / mkvmerge v10.0.0 ('To Drown In You') 64bit 2017-09-03 05:26:14 / UTC 2017-08-10T21:17:59Z
    FromStats_BitRate           : 9725
    FromStats_Duration          : 00:41:47.213000000
    FromStats_FrameCount        : 770
    FromStats_StreamSize        : 3047879

    Text #2
    ID                          : 5
    Format                      : PGS
    Muxing mode                 : zlib
    Codec ID                    : S_HDMV/PGS
    Codec ID/Info               : Picture based subtitle format used on BDs/HD-DVDs
    Language                    : Spanish
    Default                     : No
    Forced                      : No
    Statistics Tags Issue       : mkvmerge v10.0.0 ('To Drown In You') 64bit 2017-09-03 05:26:14 / mkvmerge v10.0.0 ('To Drown In You') 64bit 2017-09-03 05:26:14 / UTC 2017-08-10T21:17:59Z
    FromStats_BitRate           : 140
    FromStats_Duration          : 00:39:37.834000000
    FromStats_FrameCount        : 10
    FromStats_StreamSize        : 41800

    Text #3
    ID                          : 6
    Format                      : PGS
    Muxing mode                 : zlib
    Codec ID                    : S_HDMV/PGS
    Codec ID/Info               : Picture based subtitle format used on BDs/HD-DVDs
    Language                    : English
    Default                     : No
    Forced                      : No
    Statistics Tags Issue       : mkvmerge v10.0.0 ('To Drown In You') 64bit 2017-09-03 05:26:14 / mkvmerge v10.0.0 ('To Drown In You') 64bit 2017-09-03 05:26:14 / UTC 2017-08-10T21:17:59Z
    FromStats_BitRate           : 12325
    FromStats_Duration          : 00:42:26.544000000
    FromStats_FrameCount        : 916
    FromStats_StreamSize        : 3923418

    Menu
    00:00:00.000                : :Chapter 1
    00:03:27.332                : :Chapter 2
    00:08:49.320                : :Chapter 3
    00:11:08.001                : :Chapter 4
    00:16:58.851                : :Chapter 5
    00:20:02.785                : :Chapter 6
    00:22:39.024                : :Chapter 7
    00:26:01.185                : :Chapter 8
    00:29:54.209                : :Chapter 9
    00:32:07.050                : :Chapter 10
    00:35:46.519                : :Chapter 11
    00:39:03.466                : :Chapter 12

  • Peso: 5GB Aprox C/U

Sinopsis

La tercera temporada consta de 13 episodios y es la continuación del final de la segunda temporada, donde la mayor parte de los personajes principales terminan en Panamá. Lincoln es exonerado de sus presuntos crímenes, mientras Michael es encarcelado por cargos de homicidio en la Penitenciaría Federal de Sona, junto con Mahone, T-Bag y Bellick. Michael se ve obligado a escapar de prisión nuevamente, coaccionado por La Compañía para que se fugue y entregue a James Whistler, a cambio de la liberación de LJ y Sara.

Sincronizacion Audio Latino Gracias a: Alex – ChocoCrysp

Ficha técnica

Video trailer de la película

Enlaces de descarga

Descargar Prison Break (2007) Temporada 3 Full 1080p Latino
Descargar

dpeliculas

Aportes de DPeliculasHDmega la pass es:dpeliculashdmega.org Aportes de CinemaniaHD la pass es:cinemaniahdd.com

Películas relacionadas

  • La montaña entre nosotros (2017) 1080p Latino

    2017
    La montaña entre nosotros (2017) 1080p Latino

    0.0 1h 43m 2017

    Adaptación de la novela de Charles Martin. La historia sigue a dos personas distintas, Ashley es una...

    Director: Tim Macarthur

    Género: Aventura

    Actores: Waleed Zuaiter

  • El francotirador (1978) Full 1080p Latino

    1978
    El francotirador (1978) Full 1080p Latino

    0.0 3h 2m 1978

    Descargar Pelicula El francotirador 1978 hd latino Unos amigos de un pequeño pueblo industrial acuden...

    Director: Michael Cimino

    Género: Drama

    Actores: Vitoon Winwitoon

  • Star Trek: En la oscuridad (2013) Full 1080p Latino

    2013
    Star Trek: En la oscuridad (2013) Full 1080p Latino

    5.0 2 h 12 min 2013

    Cuando a la tripulación de la nave Enterprise le ordenan que regrese a casa, en la Tierra se enfrentan...

    Director: Vanessa Meier

    Género: Acción

    Actores: Zoe Saldana

Comentarios 4
  • PATRICIO - 14 septiembre, 2017

    HOLA MUCHAS GRACIAS POR SEMEJANTE APORTE ESPERO PUEDAS SUBIR LA CUARTA TEMPORADA HERMANO Y GRACIAS

    • dpelis

      Administrador
      - 14 septiembre, 2017

      se anda trabajando en ello

  • Aldair Jesus - 07 septiembre, 2017

    Tienen pensado subir Kingsman El Servicio Secreto antes de que se estrene la segunda este mes? En caso de que lo hicieran seria genial la version UNRATED.

  • seba12 seba12

    Suscriptor
    - 07 septiembre, 2017

    Hola, los links vip dirigen a publicidad….. Saludos.