Advertise here

Pulp Fiction (1994) Hybrid 1080p Latino

1.312 vistas
1 estrella2 estrellas3 estrellas4 estrellas5 estrellas (Ninguna valoración todavía)
Cargando…

Información de Pulp Fiction (1994) Hybrid 1080p Latino

Datos de la película

  • Calidad: 1080p
  • Audio: Español Latino AC3 2.0 BLURAY - Ingles AC3 5.1 BLURAY
  • Subtitulos: Español Latino SRT - Ingles SRT
  • Resolución: 1920x816p
  • Formato: MKV
  • Codec: H.264
  • Encoder: Dpelis
  • Mediainfo: Clic para Mostrar Datos Ver
  • Pulp.fiction.1994.hybrid.1080p.Latino.mkv
    Format                      : Matroska
    Format version              : Version 4 / Version 2
    File size                   : 4.38 GiB
    Duration                    : 2 h 34 min
    Overall bit rate            : 4 062 kb/s
    Movie name                  : DPeliculasHDMega.ORG
    Encoded date                : UTC 2017-07-30 21:38:42 / UTC 2017-07-28T23:20:32Z
    Writing application         : mkvmerge v10.0.0 ('To Drown In You') 64bit
    Writing library             : libebml v1.3.4 + libmatroska v1.4.5 / Lavf57.7.2

    Video
    ID                          : 1
    Format                      : AVC
    Format/Info                 : Advanced Video Codec
    Format profile              : High@L4.1
    Format settings, CABAC      : Yes
    Format settings, ReFrames   : 4 frames
    Codec ID                    : V_MPEG4/ISO/AVC
    Duration                    : 2 h 34 min
    Bit rate                    : 3 500 kb/s
    Width                       : 1 920 pixels
    Height                      : 816 pixels
    Display aspect ratio        : 2.35:1
    Frame rate mode             : Constant
    Frame rate                  : 23.976 (24000/1001) FPS
    Color space                 : YUV
    Chroma subsampling          : 4:2:0
    Bit depth                   : 8 bits
    Scan type                   : Progressive
    Bits/(Pixel*Frame)          : 0.093
    Stream size                 : 3.67 GiB (84%)
    Writing library             : x264 core 148 r2708 86b7198
    Encoding settings           : cabac=1 / ref=3 / deblock=1:0:0 / analyse=0x3:0x113 / me=hex / subme=7 / psy=1 / psy_rd=1.00:0.00 / mixed_ref=1 / me_range=16 / chroma_me=1 / trellis=1 / 8x8dct=1 / cqm=0 / deadzone=21,11 / fast_pskip=1 / chroma_qp_offset=-2 / threads=25 / lookahead_threads=4 / sliced_threads=0 / nr=0 / decimate=1 / interlaced=0 / bluray_compat=0 / constrained_intra=0 / bframes=3 / b_pyramid=2 / b_adapt=1 / b_bias=0 / direct=1 / weightb=1 / open_gop=0 / weightp=2 / keyint=240 / keyint_min=24 / scenecut=40 / intra_refresh=0 / rc_lookahead=40 / rc=abr / mbtree=1 / bitrate=3500 / ratetol=1.0 / qcomp=0.60 / qpmin=0 / qpmax=69 / qpstep=4 / vbv_maxrate=62500 / vbv_bufsize=78125 / nal_hrd=none / filler=0 / ip_ratio=1.40 / aq=1:1.00
    Default                     : Yes
    Forced                      : No
    Color range                 : Limited
    Color primaries             : BT.709
    Transfer characteristics    : BT.709
    Matrix coefficients         : BT.709
    Statistics Tags Issue       : mkvmerge v10.0.0 ('To Drown In You') 64bit 2017-07-30 21:38:42 / mkvmerge v10.0.0 ('To Drown In You') 64bit 2017-07-30 21:38:42 / UTC 2017-07-28T23:20:32Z
    FromStats_BitRate           : 3483467
    FromStats_Duration          : 02:34:25.256000000
    FromStats_FrameCount        : 222144
    FromStats_StreamSize        : 4034402532

    Audio #1
    ID                          : 2
    Format                      : AC-3
    Format/Info                 : Audio Coding 3
    Format settings, Endianness : Big
    Codec ID                    : A_AC3
    Duration                    : 2 h 34 min
    Bit rate mode               : Constant
    Bit rate                    : 192 kb/s
    Channel(s)                  : 2 channels
    Channel positions           : Front: L R
    Sampling rate               : 48.0 kHz
    Frame rate                  : 31.250 FPS (1536 spf)
    Bit depth                   : 16 bits
    Compression mode            : Lossy
    Delay relative to video     : -5 ms
    Stream size                 : 212 MiB (5%)
    Language                    : Spanish
    Service kind                : Complete Main
    Default                     : Yes
    Forced                      : No
    Statistics Tags Issue       : mkvmerge v10.0.0 ('To Drown In You') 64bit 2017-07-30 21:38:42 / mkvmerge v10.0.0 ('To Drown In You') 64bit 2017-07-30 21:38:42 / UTC 2017-07-28T23:20:32Z
    FromStats_BitRate           : 192000
    FromStats_Duration          : 02:34:23.808000000
    FromStats_FrameCount        : 289494
    FromStats_StreamSize        : 222331392

    Audio #2
    ID                          : 3
    Format                      : AC-3
    Format/Info                 : Audio Coding 3
    Format settings, Endianness : Big
    Codec ID                    : A_AC3
    Duration                    : 2 h 34 min
    Bit rate mode               : Constant
    Bit rate                    : 384 kb/s
    Channel(s)                  : 6 channels
    Channel positions           : Front: L C R, Side: L R, LFE
    Sampling rate               : 48.0 kHz
    Frame rate                  : 31.250 FPS (1536 spf)
    Bit depth                   : 16 bits
    Compression mode            : Lossy
    Delay relative to video     : -5 ms
    Stream size                 : 424 MiB (9%)
    Title                       : Surround
    Language                    : English
    Service kind                : Complete Main
    Default                     : No
    Forced                      : No
    Statistics Tags Issue       : mkvmerge v10.0.0 ('To Drown In You') 64bit 2017-07-30 21:38:42 / mkvmerge v10.0.0 ('To Drown In You') 64bit 2017-07-30 21:38:42 / UTC 2017-07-28T23:20:32Z
    FromStats_BitRate           : 384000
    FromStats_Duration          : 02:34:24.160000000
    FromStats_FrameCount        : 289505
    FromStats_StreamSize        : 444679680

    Text #1
    ID                          : 4
    Format                      : UTF-8
    Codec ID                    : S_TEXT/UTF8
    Codec ID/Info               : UTF-8 Plain Text
    Language                    : Spanish
    Default                     : Yes
    Forced                      : No
    Statistics Tags Issue       : mkvmerge v10.0.0 ('To Drown In You') 64bit 2017-07-30 21:38:42 / mkvmerge v10.0.0 ('To Drown In You') 64bit 2017-07-30 21:38:42 / UTC 2017-07-28T23:20:32Z
    FromStats_BitRate           : 60
    FromStats_Duration          : 02:28:56.369000000
    FromStats_FrameCount        : 1860
    FromStats_StreamSize        : 67847

    Text #2
    ID                          : 5
    Format                      : UTF-8
    Codec ID                    : S_TEXT/UTF8
    Codec ID/Info               : UTF-8 Plain Text
    Language                    : English
    Default                     : No
    Forced                      : No
    Statistics Tags Issue       : mkvmerge v10.0.0 ('To Drown In You') 64bit 2017-07-30 21:38:42 / mkvmerge v10.0.0 ('To Drown In You') 64bit 2017-07-30 21:38:42 / UTC 2017-07-28T23:20:32Z
    FromStats_BitRate           : 84
    FromStats_Duration          : 02:28:54.257000000
    FromStats_FrameCount        : 2189
    FromStats_StreamSize        : 94740

    Menu
    00:00:00.000                : :Prologue ("I Love You Pumpkin." "I Love You too, Honey Bunny.")
    00:04:45.952                : :Opening Credits. Miserlou
    00:07:03.340                : :"Royale With Cheese"
    00:14:22.487                : :Ezekiel 25:17
    00:21:05.097                : :"Boxers Don't Have an Old Timers Day"
    00:26:21.622                : :"All My Piercing, Eighteen Places on My Body - Every One Done With a Needle"
    00:31:13.955                : :Son of a Preacher Man
    00:34:08.880                : :Jack Rabbit Slim's
    00:46:36.877                : :You Never Can Tell
    00:49:54.074                : :Girl, You'll Be a Woman Soon
    00:54:46.408                : :....Adrenaline...
    01:03:27.804                : :Captain Koons' Story
    01:10:38.901                : :"I'm an American, Honey. Our Names Don't Mean Shit"
    01:14:50.152                : :"I Wish I Had a Pot"
    01:22:34.450                : :"Where's My Watch?"
    01:29:23.692                : :Poptarts
    01:33:50.416                : :Flower on the Wall
    01:37:37.685                : :"Bring Out the Gimp"
    01:43:06.555                : :"I'm Going to Get Medieval on Your Ass"
    01:49:12.880                : :Zed's Dead Baby. Zed's Dead"
    01:51:36.732                : :"Do You Know What Divine Intervention Means?"
    01:55:08.485                : :"I Just Shot Marvin in the Face"
    01:57:04.768                : :"If Bonnie Comes Home and Finds a Dead Body in Her House, I'm Gonna Get Divorced"
    02:02:09.906                : :"I'm Winston Wolf, I Solve Problems"
    02:13:18.949                : :Epilogue ("I'm Trying Real Hard to Be the Shepherd")
    02:29:45.393                : :End Credits

  • Peso: 4.38 GB

Sinopsis

La Pelicula de Pulp Fiction hd latino  ya se encuentra disponible para descargar en dos calidad 1080p Lijero y la calidad final ,Jules y Vincent, dos asesinos a sueldo con muy pocas luces, trabajan para Marsellus Wallace. Vincent le confiesa a Jules que Marsellus le ha pedido que cuide de Mia, su mujer. Jules le recomienda prudencia porque es muy peligroso sobrepasarse con la novia del jefe. Cuando llega la hora de trabajar, ambos deben ponerse manos a la obra. Su misión: recuperar un misterioso maletín.

Gracias papelillio por el audio Latino

Ficha técnica

  • Titulo original: Pulp Fiction
  • Fecha de lanzamiento: 08-10-1994 (United States of America)
  • Director: Quentin Tarantino
  • Género: Crimen, Suspense
  • Puntuación: 0.0 0 votos
  • Duración:
    2h 34m

Video trailer de la película

Enlaces de descarga

Descargar Pulp Fiction (1994) Hybrid 1080p Latino
Descargar

dpeliculas

Aportes de DPeliculasHDmega la pass es:dpeliculashdmega.org Aportes de CinemaniaHD la pass es:cinemaniahdd.com
Guardado en : Crimen , Suspense

Películas relacionadas

  • Barry Seal: solo en América (2017) 1080p Latino

    2017
    Barry Seal: solo en América (2017) 1080p Latino

    0.0 1 h 54 min 2017

    Basada en la vida real de Barry Seal, un expiloto que se convirtió en un importante narcotraficante...

    Director: Nick DiRosa

    Género: Acción

    Actores: William Mark McCullough

  • Arrow (2017) Temporada 6 WEBDL 1080p Latino

    2012
    Arrow (2017) Temporada 6 WEBDL 1080p Latino

    2.3 0h 42m 2012

    Con el futuro del equipo pendiendo de un hilo, Arrow le dio una nueva definición a la frase “explotar...

    Director: Marc Guggenheim

    Género: Acción

    Actores: Willa Holland

  • Dulce venganza (2016) 1080p Latino

    2016
    Dulce venganza (2016) 1080p Latino

    2.5 1 h 34 min 2016

    Un asesino de élite llamado Frank, tras ser traicionado por unos gángsters, es enviado a una cirujana...

    Director: Walter Hill

    Género: Acción

    Actores: Zak Santiago

  • La jugada maestra (2015) 1080p Latino

    2015
    La jugada maestra (2015) 1080p Latino

    0.0 1h 54m 2015

    "Pawn Sacrifice" (El sacrificio del peón) narra la historia de la preparación y del legendario enfrentamiento...

    Director: Edward Zwick

    Género: Drama

    Actores: Zach Fraser

Comentarios 7
  • seba - 31 julio, 2017

    qué significa hybrid ??

    • dpelis

      Administrador
      - 31 julio, 2017

      Los hynrid que con tiene la imagen, por lo general son laa pelis que viene en el BD 3d con scena imax y se la agregar al BD 2D

  • Matias SQWC - 31 julio, 2017

    Que seria la version hybrid?

    • dpelis

      Administrador
      - 31 julio, 2017

      Los hynrid que con tiene la imagen, por lo general son laa pelis que viene en el BD 3d con scena imax y se la agregar al BD 2D

  • Luis - 31 julio, 2017

    Muchas Gracias por la Pelicula Dpelis y Pepelillio por traer esta gran pelicula de los 90 de regreso. Espero sigan apostando por peliculas de los 80 y 90

  • Andrew - 31 julio, 2017

    Que significa Hybrid???

    • dpelis

      Administrador
      - 31 julio, 2017

      Los hynrid que con tiene la imagen, por lo general son laa pelis que viene en el BD 3d con scena imax y se la agregar al BD 2D