Advertise here

Pup Star: Better 2Gether (2017) WEBDL 1080p Latino

743 vistas
1 estrella2 estrellas3 estrellas4 estrellas5 estrellas (Ninguna valoración todavía)
Cargando…

Información de Pup Star: Better 2Gether (2017) WEBDL 1080p Latino

Datos de la película

  • Calidad: WEBDL
  • Audio: Español Latino AC3 5.1 iTunes - Ingles AC3 5.1 iTunes
  • Subtitulos: No
  • Resolución: 1912x1072p
  • Formato: MKV
  • Codec: H.264
  • Encoder: Dpelis
  • Mediainfo: Clic para Mostrar Datos Ver
  • Pup Star_ Better 2Gether (2017) (WEBDL 1080p Latino.mkv
    Format                      : Matroska
    Format version              : Version 4 / Version 2
    File size                   : 3.82 GiB
    Duration                    : 1 h 32 min
    Overall bit rate            : 5 895 kb/s
    Movie name                  : DPeliculasHDMega.ORG
    Encoded date                : UTC 2017-08-29 15:45:26
    Writing application         : mkvmerge v10.0.0 ('To Drown In You') 64bit
    Writing library             : libebml v1.3.4 + libmatroska v1.4.5

    Video
    ID                          : 1
    Format                      : AVC
    Format/Info                 : Advanced Video Codec
    Format profile              : High@L4
    Format settings, CABAC      : Yes
    Format settings, ReFrames   : 4 frames
    Codec ID                    : V_MPEG4/ISO/AVC
    Duration                    : 1 h 32 min
    Bit rate                    : 5 125 kb/s
    Width                       : 1 912 pixels
    Height                      : 1 072 pixels
    Display aspect ratio        : 16:9
    Frame rate mode             : Constant
    Frame rate                  : 23.976 FPS
    Color space                 : YUV
    Chroma subsampling          : 4:2:0
    Bit depth                   : 8 bits
    Scan type                   : Progressive
    Bits/(Pixel*Frame)          : 0.104
    Stream size                 : 3.32 GiB (87%)
    Language                    : English
    Default                     : Yes
    Forced                      : No
    Color range                 : Limited
    Color primaries             : BT.709
    Transfer characteristics    : BT.709
    Matrix coefficients         : BT.709

    Audio #1
    ID                          : 2
    Format                      : AC-3
    Format/Info                 : Audio Coding 3
    Format settings, Endianness : Big
    Codec ID                    : A_AC3
    Duration                    : 1 h 32 min
    Bit rate mode               : Constant
    Bit rate                    : 384 kb/s
    Channel(s)                  : 6 channels
    Channel positions           : Front: L C R, Side: L R, LFE
    Sampling rate               : 48.0 kHz
    Frame rate                  : 31.250 FPS (1536 spf)
    Bit depth                   : 16 bits
    Compression mode            : Lossy
    Stream size                 : 255 MiB (7%)
    Language                    : Spanish
    Service kind                : Complete Main
    Default                     : Yes
    Forced                      : No

    Audio #2
    ID                          : 3
    Format                      : AC-3
    Format/Info                 : Audio Coding 3
    Format settings, Endianness : Big
    Codec ID                    : A_AC3
    Duration                    : 1 h 32 min
    Bit rate mode               : Constant
    Bit rate                    : 384 kb/s
    Channel(s)                  : 6 channels
    Channel positions           : Front: L C R, Side: L R, LFE
    Sampling rate               : 48.0 kHz
    Frame rate                  : 31.250 FPS (1536 spf)
    Bit depth                   : 16 bits
    Compression mode            : Lossy
    Stream size                 : 255 MiB (7%)
    Language                    : English
    Service kind                : Complete Main
    Default                     : No
    Forced                      : No

    Menu
    00:00:00.000                : en:1
    00:02:58.000                : en:2
    00:16:05.000                : en:3
    00:28:25.000                : en:4
    00:40:51.000                : en:5
    00:51:16.000                : en:6
    01:03:41.000                : en:7
    01:14:49.000                : en:8
    01:28:20.000                : en:9

  • Peso: 3.82 GB

Sinopsis

Pup Star está de vuelta para una aventura totalmente nueva! Después de ganar el show de la competencia canina Pup Star y convertirse en una sensación de cachorro internacional, Tiny, el adorable Yorkie, tiene su mundo vuelto al revés cuando un mal rival la convierte en competencia con un perrito callejero llamado Scrappy. Las dos crías se encuentran viviendo la vida muy diferente de los demás y un viaje increíble a través de ciudades icónicas se produce en esta divertida e hilarante aventura de perro-fuera-de-agua! A medida que se preparan para la competencia Pup Star para llegar a su final, cada experiencia de la vida a través de un collar muy diferente y descubrir la importancia de la familia y ser fiel a ti mismo. En el final, ambos Yorkies pretenden ser Tiny dejando a todo el mundo, incluyendo a los jueces, preguntándose – ¿quién es la verdadera estrella de Pup? Una gran aventura musical divertida, ‘Pup Star: Better 2gether’ está llena de increíbles cantantes, fantásticas canciones para tocar las patas y una historia llena de acción llena de emoción que hará que las audiencias de todas las edades aullen por más!

Ficha técnica

  • Titulo original: Pup Star: Better 2Gether
  • Fecha de lanzamiento: 29-08-2017 (United States of America)
  • Director: Robert Vince
  • Género: Familia
  • Puntuación: 0.0 0 votos
  • Duración:
    1h 32m

Video trailer de la película

Enlaces de descarga

Descargar Pup Star: Better 2Gether (2017) WEBDL 1080p Latino
Descargar

dpeliculas

Aportes de DPeliculasHDmega la pass es:dpeliculashdmega.org Aportes de CinemaniaHD la pass es:cinemaniahdd.com
Guardado en : Familia

Películas relacionadas

Comentarios 2
  • Miguel - 29 agosto, 2017

    La parte de google drive y mega estan rotos

    • dpelis

      Administrador
      - 29 agosto, 2017

      mega online. http://prntscr.com/gelc1y google drive debe esperar hasta la noche por el momento se a limitado a muchas descargas