Advertise here

Rogue One Una Historia De Star Wars (2016) FULL 1080p x265 Latino

2.570 vistas
1 estrella2 estrellas3 estrellas4 estrellas5 estrellas (3 votos, promedio: 5,00 de 5)
Cargando…

Información de Rogue One Una Historia De Star Wars (2016) FULL 1080p x265 Latino

Datos de la película

  • Calidad: Full 1080p
  • Audio: Español Latino AC3 5.1 BLURAY - Ingles DTS 5.1 BLURAY
  • Subtitulos: Español Latino PGS
  • Resolución: 1920x1080p
  • Formato: MKV
  • Codec: H.265
  • Encoder:
  • Mediainfo: Clic para Mostrar Datos Ver
  • Rogue One Una Historia De Star Wars (2016) 1080p BluRay x265 HEVC DTS Dual Latino.mkv
    Format                      : Matroska
    Format version              : Version 4 / Version 2
    File size                   : 4.14 GiB
    Duration                    : 2 h 13 min
    Overall bit rate            : 4 422 kb/s
    Encoded date                : UTC 2017-04-19 21:59:01
    Writing application         : mkvmerge v9.9.0 ('Pick Up') 64bit
    Writing library             : libebml v1.3.4 + libmatroska v1.4.5

    Video
    ID                          : 1
    Format                      : HEVC
    Format/Info                 : High Efficiency Video Coding
    Format profile              : Main@L4@Main
    Codec ID                    : V_MPEGH/ISO/HEVC
    Duration                    : 2 h 13 min
    Bit rate                    : 2 242 kb/s
    Width                       : 1 920 pixels
    Height                      : 1 080 pixels
    Display aspect ratio        : 16:9
    Frame rate mode             : Constant
    Frame rate                  : 23.976 (24000/1001) FPS
    Color space                 : YUV
    Chroma subsampling          : 4:2:0
    Bit depth                   : 8 bits
    Bits/(Pixel*Frame)          : 0.045
    Stream size                 : 2.10 GiB (51%)
    Writing library             : x265 2.1:[Windows][GCC 5.3.1][64 bit] 8bit
    Encoding settings           : wpp / ctu=64 / min-cu-size=8 / max-tu-size=32 / tu-intra-depth=1 / tu-inter-depth=1 / me=3 / subme=3 / merange=57 / rect / no-amp / max-merge=3 / temporal-mvp / no-early-skip / rskip / rdpenalty=0 / no-tskip / no-tskip-fast / strong-intra-smoothing / no-lossless / no-cu-lossless / no-constrained-intra / no-fast-intra / open-gop / no-temporal-layers / interlace=0 / keyint=240 / min-keyint=24 / scenecut=40 / rc-lookahead=25 / lookahead-slices=4 / bframes=4 / bframe-bias=0 / b-adapt=2 / ref=4 / limit-refs=3 / limit-modes / weightp / no-weightb / aq-mode=1 / qg-size=32 / aq-strength=1.00 / cbqpoffs=0 / crqpoffs=0 / rd=4 / psy-rd=2.00 / rdoq-level=2 / psy-rdoq=1.00 / log2-max-poc-lsb=8 / no-rd-refine / signhide / deblock=0:0 / sao / no-sao-non-deblock / b-pyramid / cutree / no-intra-refresh / rc=crf / crf=20.0 / qcomp=0.60 / qpmin=0 / qpmax=69 / qpstep=4 / ipratio=1.40 / pbratio=1.30
    Default                     : Yes
    Forced                      : No
    Color range                 : Limited
    Color primaries             : BT.709
    Transfer characteristics    : BT.709
    Matrix coefficients         : BT.709

    Audio #1
    ID                          : 2
    Format                      : AC-3
    Format/Info                 : Audio Coding 3
    Format settings, Endianness : Big
    Codec ID                    : A_AC3
    Duration                    : 2 h 13 min
    Bit rate mode               : Constant
    Bit rate                    : 640 kb/s
    Channel(s)                  : 6 channels
    Channel positions           : Front: L C R, Side: L R, LFE
    Sampling rate               : 48.0 kHz
    Frame rate                  : 31.250 FPS (1536 spf)
    Bit depth                   : 16 bits
    Compression mode            : Lossy
    Stream size                 : 613 MiB (14%)
    Title                       : Español Latino AC3 5.1 [640 Kbps]
    Language                    : Spanish
    Service kind                : Complete Main
    Default                     : Yes
    Forced                      : No

    Audio #2
    ID                          : 3
    Format                      : DTS
    Format/Info                 : Digital Theater Systems
    Mode                        : 16
    Format settings, Endianness : Big
    Codec ID                    : A_DTS
    Duration                    : 2 h 13 min
    Bit rate mode               : Constant
    Bit rate                    : 1 509 kb/s
    Channel(s)                  : 6 channels
    Channel positions           : Front: L C R, Side: L R, LFE
    Sampling rate               : 48.0 kHz
    Frame rate                  : 93.750 FPS (512 spf)
    Bit depth                   : 24 bits
    Compression mode            : Lossy
    Stream size                 : 1.41 GiB (34%)
    Title                       : Inglés DTS 5.1 [1509 Kbps]
    Language                    : English
    Default                     : No
    Forced                      : No

    Text #1
    ID                          : 4
    Format                      : PGS
    Codec ID                    : S_HDMV/PGS
    Codec ID/Info               : Picture based subtitle format used on BDs/HD-DVDs
    Duration                    : 1 h 23 min
    Bit rate                    : 235 b/s
    Count of elements           : 54
    Stream size                 : 144 KiB (0%)
    Title                       : Subtítulos Español Latino - Forzados [PGS]
    Language                    : Spanish
    Default                     : No
    Forced                      : Yes

    Text #2
    ID                          : 5
    Format                      : PGS
    Codec ID                    : S_HDMV/PGS
    Codec ID/Info               : Picture based subtitle format used on BDs/HD-DVDs
    Duration                    : 2 h 5 min
    Bit rate                    : 30.2 kb/s
    Count of elements           : 3002
    Stream size                 : 27.1 MiB (1%)
    Title                       : Subtítulos Español Latino [PGS]
    Language                    : Spanish
    Default                     : No
    Forced                      : No

    Menu
    00:00:00.000                : :Chapter 1
    00:02:34.655                : :Chapter 2
    00:07:46.466                : :Chapter 3
    00:08:42.814                : :Chapter 4
    00:11:04.622                : :Chapter 5
    00:12:21.199                : :Chapter 6
    00:13:41.154                : :Chapter 7
    00:17:19.914                : :Chapter 8
    00:20:09.542                : :Chapter 9
    00:21:54.772                : :Chapter 10
    00:23:47.092                : :Chapter 11
    00:24:31.387                : :Chapter 12
    00:26:53.445                : :Chapter 13
    00:27:46.623                : :Chapter 14
    00:30:37.294                : :Chapter 15
    00:33:53.406                : :Chapter 16
    00:37:11.271                : :Chapter 17
    00:42:30.089                : :Chapter 18
    00:47:16.125                : :Chapter 19
    00:51:04.144                : :Chapter 20
    00:52:23.724                : :Chapter 21
    00:55:53.267                : :Chapter 22
    00:59:48.251                : :Chapter 23
    01:02:07.807                : :Chapter 24
    01:05:25.505                : :Chapter 25
    01:10:24.095                : :Chapter 26
    01:12:49.532                : :Chapter 27
    01:16:28.459                : :Chapter 28
    01:19:04.323                : :Chapter 29
    01:21:55.160                : :Chapter 30
    01:23:25.667                : :Chapter 31
    01:25:58.987                : :Chapter 32
    01:27:34.958                : :Chapter 33
    01:29:57.309                : :Chapter 34
    01:31:53.842                : :Chapter 35
    01:34:18.736                : :Chapter 36
    01:36:07.512                : :Chapter 37
    01:37:48.237                : :Chapter 38
    01:40:27.605                : :Chapter 39
    01:42:44.075                : :Chapter 40
    01:45:26.779                : :Chapter 41
    01:47:55.010                : :Chapter 42
    01:50:31.416                : :Chapter 43
    01:53:28.885                : :Chapter 44
    01:55:46.273                : :Chapter 45
    01:59:23.448                : :Chapter 46
    02:01:11.347                : :Chapter 47
    02:03:15.597                : :Chapter 48
    02:05:42.118                : :Chapter 49

  • Peso: 4.14 GB

Sinopsis

El Imperio Galáctico ha terminado de construir el arma más poderosa de todas, la Estrella de la muerte, pero un grupo de rebeldes decide realizar una misión de muy alto riesgo: robar los planos de dicha estación antes de que entre en operaciones, mientras se enfrentan también al poderoso Lord Sith conocido como Darth Vader, discípulo del despiadado Emperador Palpatine. Film ambientado entre los episodios III y IV de Star Wars.

Ficha técnica

Video trailer de la película

Enlaces de descarga

Descargar
Descargar Rogue One Una Historia De Star Wars (2016) FULL 1080p x265 Latino

dpeliculas

Aportes de DPeliculasHDmega la pass es:dpeliculashdmega.org Aportes de CinemaniaHD la pass es:cinemaniahdd.com

Películas relacionadas

  • Barry Seal: solo en América (2017) 1080p Latino

    2017
    Barry Seal: solo en América (2017) 1080p Latino

    0.0 1 h 54 min 2017

    Basada en la vida real de Barry Seal, un expiloto que se convirtió en un importante narcotraficante...

    Director: Nick DiRosa

    Género: Acción

    Actores: William Mark McCullough

  • Línea mortal: al límite (2017) Full 1080p Latino

    2017
    Línea mortal: al límite (2017) Full 1080p Latino

    0.0 1 h 49 min 2017

    Remake del clasico de los 90 Línea mortal (Flatliners). Un grupo de jóvenes estudiantes de medicina...

    Director: Niels Arden Oplev

    Género: Ciencia ficción

    Actores: Wendy Raquel Robinson

  • La montaña entre nosotros (2017) Full 1080p Latino

    2017
    La montaña entre nosotros (2017) Full 1080p Latino

    5.0 1 h 51 min 2017

    Abandonados a su suerte después de un trágico accidente aéreo, Ben Bass (Idris Elba) y Alex Martin...

    Director: Tim Macarthur

    Género: Aventura

    Actores: Waleed Zuaiter

  • La montaña entre nosotros (2017) 1080p Latino

    2017
    La montaña entre nosotros (2017) 1080p Latino

    4.0 1h 43m 2017

    Adaptación de la novela de Charles Martin. La historia sigue a dos personas distintas, Ashley es una...

    Director: Tim Macarthur

    Género: Aventura

    Actores: Waleed Zuaiter

Comentarios 4
  • FELIX - 24 abril, 2017

    parece que esta mala, no se ve el video solo el sonido.. en mkv player. las demas pelis se ven perfectas, pero goguer one No.. 🙁

    • dpelis

      Administrador
      - 24 abril, 2017

      siempre ha reproducido video x265 oh anterior 264?

    • slash - 24 abril, 2017

      Las razones son:

      1. Puede ser que su reproductor no tenga los codecs necesarios para reproducir la Movie (Actualizarlos o cambiar de reproductor)
      2. A lo mejor su PC no tiene la capacidad para reproducirlo.
      3. Su pantalla o led no tiene la capacidad para reproducir el formato.

      Le recomendamos seguir bajando las versiones plateadas para siga disfrutando de las películas, saludos.

  • leonidas - 21 abril, 2017

    Exelente aporte, el trabajo que hacen es exelente gracias